Enable / Włącz Javascript
 Widok 
 Kategorie 
 Nitro Torrent w sieci 
 Top 10 użytkowników 
 Zaplątani 3D (SBS) - Tangled (2010) [1080p DTS x264 Half Side by Side] [ENG]

Zaplątani 3D (SBS) - Tangled (2010) [1080p DTS x264 Half Side by Side] [ENG]
Kategoria: » » »
Dodane: 03/10/2017
Rozmiar: 6.25 GB
Uploader: tomysparow559 (10)
seed(ów): 0
leecher(ów): 0
Pobrane: 3
Komentarzy: 0
Pobierz Torrent Pobierz Torrent
Pobierz [Magnet] Pobierz [Magnet]

Obserwuj
Raportuj
Film w wersji 3D Side-by-Side.
Do odtworzenia filmu WYMAGANY odpowiedni sprzęt (TV 3D).

premiera: 26 listopada 2010 (Polska) 24 listopada 2010 (Świat)
produkcja: USA
gatunek: Animacja, Familijny, Komedia

Flynn (Maciej Stuhr), uroczy awanturnik ścigany przez rozbójników, znajduje schronienie w opuszczonej wieży. Spotyka tam piękną i pełną temperamentu Roszpunkę (Julia Kamińska), dziewczynę, której złote włosy mają magiczną moc. Żyjąca na odludziu księżniczka marzy, by poznać świat i przeżyć coś ekscytującego. Czarujący łotrzyk Flynn staje się jej przepustką do wolności...

Ogólne

Format : Matroska
File size : 6.25 GiB
Duration : 1h 40mn
Overall bit rate : 8 925 Kbps
Encoded date : UTC 2011-03-17 04:13:09

Video
ID : 1
Format : AVC
Format/Info : Advanced Video Codec
Format profile : High@L4.1
Format settings, CABAC : Yes
Format settings, ReFrames : 4 frames
Muxing mode : Container profile=Unknown@4.1
Codec ID : V_MPEG4/ISO/AVC
Duration : 1h 40mn
Bit rate : 6 789 Kbps
Width : 1 920 pixels
Height : 1 080 pixels
Display aspect ratio : 16:9
Frame rate : 23.976 fps
Color space : YUV
Chroma subsampling : 4:2:0
Bit depth : 8 bits
Scan type : Progressive
Bits/(Pixel*Frame) : 0.137
Stream size : 4.76 GiB (76%)

Audio #1
ID : 2
Format : AC-3
Format/Info : Audio Coding 3
Mode extension : CM (complete main)
Codec ID : A_AC3
Duration : 1h 40mn
Bit rate mode : Constant
Bit rate : 448 Kbps
Channel(s) : 6 channels
Channel positions : Front: L C R, Side: L R, LFE
Sampling rate : 48.0 KHz
Bit depth : 16 bits
Stream size : 321 MiB (5%)
Language : Russian


Audio #2
ID : 3
Format : DTS
Format/Info : Digital Theater Systems
Codec ID : A_DTS
Duration : 1h 40mn
Bit rate mode : Constant
Bit rate : 1 510 Kbps
Channel(s) : 6 channels
Channel positions : Front: L C R, Side: L R, LFE
Sampling rate : 48.0 KHz
Bit depth : 24 bits
Stream size : 1.06 GiB (17%)
Language : English

torrent pobrano z http://*censored*
Dostępne napisy
Brak napisów
Szczegóły torrenta
Tracker http://i.bandito.org/announce
Multitracker [ Pokaż ]
Kategoria: » » » [Zgłoś błąd]
Dodane 03-10-2017
Podziękowali:
0 użytkowników 
Podziękuj!
Pokaż / Ukryj pliki:
Nazwa pliku Rozmiar
Tangled.3D.half.SBS.z-man.mkv 6.25 GB
1 plik
Brak komentarzy...