Enable / Włącz Javascript
 Widok 
 Kategorie 
 Nitro Torrent w sieci 
 Top 10 użytkowników 
 Wojownicze żółwie ninja 3D(OU) - Teenage Mutant Ninja Turtles *2014* [mini-HD.1080p.Half.Over-Under.AC3.BluRay.x264-SONDA] [Napisy PL]

Wojownicze żółwie ninja 3D(OU) - Teenage Mutant Ninja Turtles *2014* [mini-HD.1080p.Half.Over-Under.AC3.BluRay.x264-SONDA] [Napisy PL]
Kategoria: » » »
Dodane: 03/10/2017
Rozmiar: 3.96 GB
Uploader: wourua.live❱ Wędrowiec
seed(ów): 0
leecher(ów): 0
Pobrane: 2
Komentarzy: 0
Pobierz Torrent Pobierz Torrent
Pobierz [Magnet] Pobierz [Magnet]

Obserwuj
Raportuj
Film w wersji 3D Over-Under
Do odtworzenia filmu WYMAGANY odpowiedni sprzęt (TV 3D).
==========================================

UWAGA: Napisy na stałe wtopione w film. Zapraszam Wszystkich chętnych !!!!!!
====================================================



Kopia mini-HD 1080p = 3,95 GB





gatunek: Komedia,Akcja,Sci-Fi
produkcja: USA
premiera: 8 sierpnia 2014 (Polska) 3 sierpnia 2014 (świat)
reżyseria: Jonathan Liebesman
scenariusz: Josh Appelbaum,Andr?? Nemec,Evan Daugherty


http://www.imdb.com/title/tt1291150/
http://www.filmweb.pl/film?id=646687


Obsada:

Megan Fox ... April O'Neil
Will Arnett ... Vernon Fenwick
William Fichtner ... Eric Sacks
Alan Ritchson ... Raphael
Noel Fisher ... Michaelangelo
Pete Ploszek ... Leonardo
Johnny Knoxville ... Leonardo (głos)
Jeremy Howard ... Donatello

Opis:

Miasto potrzebuje bohaterów. Ciemność zapanowała w Nowym Jorku, bo Shredder i jego Klan Walczących Stóp trzymają wszystkich w ryzach - od policji po polityków. Przyszłość wygląda ponuro, ale nagle spod ziemi wyrastają czterej niezwykli bracia - Wojownicze Żółwie Ninja. Żółwie muszą współpracować z nieustraszoną dziennikarką April O'Neil (Megan Fox) i jej superinteligentnym kamerzystą Vernem Fenwickiem (Will Arnett), aby uratować miasto i powstrzymać diaboliczny plan Shreddera.

Screeny:








General
Format                                   : Matroska
Format version                           : Version 2
File size                                : 3.96 GiB
Duration                                 : 1h 41mn
Overall bit rate mode                    : Variable
Overall bit rate                         : 5 597 Kbps
Movie name                               : Teenage.Mutant.Ninja.Turtles.3D.miniHD.1080p.subbedPL.Bluray3D [Rip by Sonda AT-Team]
Encoded date                             : UTC 2014-11-28 16:00:13
Writing application                      : mkvmerge v5.7.0 ('The Whirlwind') built on Jul  8 2012 20:08:51
Writing library                          : libebml v1.2.3 + libmatroska v1.3.0

Video
ID                                       : 1
Format                                   : AVC
Format/Info                              : Advanced Video Codec
Format profile                           : High@L4.1
Format settings, CABAC                   : Yes
Format settings, ReFrames                : 2 frames
Codec ID                                 : V_MPEG4/ISO/AVC
Duration                                 : 1h 41mn
Bit rate mode                            : Variable
Bit rate                                 : 5 101 Kbps
Maximum bit rate                         : 40.0 Mbps
Width                                    : 1 920 pixels
Height                                   : 1 080 pixels
Display aspect ratio                     : 2.39:1
Frame rate mode                          : Constant
Frame rate                               : 23.976 fps
Color space                              : YUV
Chroma subsampling                       : 4:2:0
Bit depth                                : 8 bits
Scan type                                : Progressive
Bits/(Pixel*Frame)                       : 0.103
Stream size                              : 3.61 GiB (91%)
Title                                    : Rip by Sonda subbedPL - encoding 2 pass
Default                                  : Yes
Forced                                   : No
Color primaries                          : BT.709
Transfer characteristics                 : BT.709
Matrix coefficients                      : BT.709

Audio
ID                                       : 2
Format                                   : AC-3
Format/Info                              : Audio Coding 3
Mode extension                           : CM (complete main)
Format settings, Endianness              : Big
Codec ID                                 : A_AC3
Duration                                 : 1h 41mn
Bit rate mode                            : Constant
Bit rate                                 : 384 Kbps
Channel(s)                               : 6 channels
Channel positions                        : Front: L C R, Side: L R, LFE
Sampling rate                            : 48.0 KHz
Bit depth                                : 16 bits
Compression mode                         : Lossy
Stream size                              : 278 MiB (7%)
Title                                    : AC3 5.1 Original
Language                                 : English
Default                                  : Yes
Forced                                   : No

Menu
00:00:00.000                             : en:(01)00:00:00:000
00:05:00.000                             : en:(02)00:05:00:000
00:10:00.000                             : en:(03)00:10:00:000
00:15:00.000                             : en:(04)00:15:00:000
00:20:00.000                             : en:(05)00:20:00:000
00:25:00.000                             : en:(06)00:25:00:000
00:30:00.000                             : en:(07)00:30:00:000
00:35:00.000                             : en:(08)00:35:00:000
00:40:00.000                             : en:(09)00:40:00:000
00:45:00.000                             : en:(10)00:45:00:000
00:50:00.000                             : en:(11)00:50:00:000
00:55:00.000                             : en:(12)00:55:00:000
01:00:00.000                             : en:(13)01:00:00:000
01:05:00.000                             : en:(14)01:05:00:000
01:10:00.000                             : en:(15)01:10:00:000
01:15:00.000                             : en:(16)01:15:00:000
01:20:00.000                             : en:(17)01:20:00:000
01:25:00.000                             : en:(18)01:25:00:000
01:30:00.000                             : en:(19)01:30:00:000
01:35:00.000                             : en:(20)01:35:00:000
01:40:00.000                             : en:(21)01:40:00:000


Source:
A/V-Teenage.Mutant.Ninja.Turtles.2014.1080p.3D.BluRay.AVC.TrueHD.7.1.Atmos-RARBG
PLSUBBED - SONDA




Dostępne napisy
Brak napisów
Szczegóły torrenta
Tracker http://tracker.aletorrenty.pl:2710/announce
Multitracker [ Pokaż ]
Kategoria: » » » [Zgłoś błąd]
Dodane 03-10-2017
Podziękowali:
0 użytkowników 
Podziękuj!
Pokaż / Ukryj pliki:
Nazwa pliku Rozmiar
Teenage.Mutant.Ninja.Turtles.3D.miniHD.1080p.subbedPL(Sonda).mkv 3.96 GB
AT-TEAM old movie.jpg 140.78 KB
wpid-TeenageMutantNinjaTurtles2014BRHMW.jpg 87.86 KB
Upload by Sonda [AT-TEAM].jpg 36.66 KB
Read iNFO.txt 2.07 KB
Ale Torrenty Team enjoy !.url 0.11 KB
6 plików
Brak komentarzy...