Enable / Włącz Javascript
 Widok 
 Kategorie 
 Nitro Torrent w sieci 
 Top 10 użytkowników 
 Tupot Małych Stóp 2 - Happy Feet Two 3D (OU) (2011) [BluRay 1080p AC3 x264 Over-Under(ash61)] [ENG]

Tupot Małych Stóp 2 - Happy Feet Two 3D (OU) (2011) [BluRay 1080p AC3 x264 Over-Under(ash61)] [ENG]
Kategoria: » » »
Dodane: 03/10/2017
Rozmiar: 9.87 GB
Uploader: tomysparow559 (10)
seed(ów): 0
leecher(ów): 0
Pobrane: -
Komentarzy: 0
Pobierz Torrent Pobierz Torrent
Pobierz [Magnet] Pobierz [Magnet]

Obserwuj
Raportuj
Film w wersji 3D Over-Under.
Do odtworzenia filmu WYMAGANY odpowiedni sprzęt (TV 3D).

gatunek: Animacja, Familijny, Komedia
premiera: 2 grudnia 2011 (Polska) 17 listopada 2011 (Świat)
produkcja: Australia

W kontynuacji wyróżnionego nagrodą Akademii hitu kasowego Happy Feet 2 widzowie znów zobaczą bajeczne krajobrazy Antarktyki i spotkają się z najpopularniejszym stepującym pingwinem Mambo (Elijah Wood), miłością jego życia Glorią (Alecia Moore {Pink}) i ich starymi znajomymi Ramonem i Lovelace’em (Robin Williams). Mambo i Gloria mają syna Erika (EG Daly), który próbuje znaleźć swoje powołanie w świecie cesarskich pingwinów. Nowe zagrożenia nadciągają jednak nad populację pingwinów i aby ocaleć, wszystkie pingwiny będą musiały współpracować — i tańczyć.

Ogólne
Format : Matroska
File size : 9.87 GiB
Duration : 1h 39mn
Overall bit rate : 14.2 Mbps
Movie name : Happy Feet Two (3D) 2011 (Ash61)
Encoded date : UTC 2012-03-01 07:33:26

Video
ID : 1
Format : AVC
Format/Info : Advanced Video Codec
Format profile : High@L4.1
Format settings, CABAC : Yes
Format settings, ReFrames : 4 frames
Codec ID : V_MPEG4/ISO/AVC
Duration : 1h 39mn
Bit rate : 12.8 Mbps
Width : 1 920 pixels
Height : 1 080 pixels
Display aspect ratio : 16:9
Frame rate : 23.976 fps
Color space : YUV
Chroma subsampling : 4:2:0
Bit depth : 8 bits
Scan type : Progressive
Bits/(Pixel*Frame) : 0.258
Stream size : 8.92 GiB (90%)
Title : BDrip by Ash61

Audio #1
ID : 2
Format : AC-3
Format/Info : Audio Coding 3
Mode extension : CM (complete main)
Codec ID : A_AC3
Duration : 1h 39mn
Bit rate mode : Constant
Bit rate : 448 Kbps
Channel(s) : 6 channels
Channel positions : Front: L C R, Side: L R, LFE
Sampling rate : 48.0 KHz
Bit depth : 16 bits
Compression mode : Lossy
Stream size : 319 MiB (3%)
Language : Russian

Audio #2
ID : 3
Format : AC-3
Format/Info : Audio Coding 3
Mode extension : CM (complete main)
Codec ID : A_AC3
Duration : 1h 39mn
Bit rate mode : Constant
Bit rate : 640 Kbps
Channel(s) : 6 channels
Channel positions : Front: L C R, Side: L R, LFE
Sampling rate : 48.0 KHz
Bit depth : 16 bits
Compression mode : Lossy
Stream size : 455 MiB (5%)
Language : English

torrent pobrano z http://*censored*
Dostępne napisy
Brak napisów
Szczegóły torrenta
Tracker http://i.bandito.org/announce
Multitracker [ Pokaż ]
Kategoria: » » » [Zgłoś błąd]
Dodane 03-10-2017
Podziękowali:
0 użytkowników 
Podziękuj!
Pokaż / Ukryj pliki:
Nazwa pliku Rozmiar
HappyFeetTwo(3D)2011.halfOU(ash61).mkv 9.87 GB
1 plik
Brak komentarzy...