Enable / Włącz Javascript
 Widok 
 Kategorie 
 Nitro Torrent w sieci 
 Top 10 użytkowników 
 The Physician *2013* [BRRip] [XviD] [MP3-RARBG] [ENG]

The Physician *2013* [BRRip] [XviD] [MP3-RARBG] [ENG]
Kategoria: » » »
Dodane: 03/10/2017
Rozmiar: 1.37 GB
Uploader: wourua.live❱ Wędrowiec
seed(ów): 0
leecher(ów): 0
Pobrane: 1
Komentarzy: 0
Pobierz Torrent Pobierz Torrent
Pobierz [Magnet] Pobierz [Magnet]

Obserwuj
Raportuj
[Oryginalny obrazek]

Tytuł: The Physician / Medicus
Ocena: IMDB - 7.3/10 (3711), Filmweb - 7.3/10 (63)
Produkcja: Niemcy
Gatunek: Przygodowy, Dramat historyczny
Czas trwania: 156 min.
Premiera: 25.04.2014 - Polska, 25.12.2013 - Świat
Reżyseria: Philipp St??lzl
Scenariusz: Jan Berger, Noah Gordon


L I N K


[Oryginalny obrazek]

Persja, XI w. Młody chłopak, ukrywając się jako Żyd, podejmuje naukę w szkole lekarskiej, by zdobyć niezbędne kwalifikacje.

[Oryginalny obrazek]

... Emma Rigby as Rebecca
... Stellan Skarsgård as Barber
... Ben Kingsley as Ibn Sina
... Olivier Martinez as Shah Ala ad-Daula
... Tom Payne as Rob Cole
... Elyas M'Barek as Karim
... Stanley Townsend as Bar Kappara
... Michael Jibson as Stratford Monk
... Michael Marcus as Mirdin
... Mohamen Mehdi Ouazanni as Mirdin's Father


[Oryginalny obrazek]


Info:
Format                                   : AVI
Format/Info                              : Audio Video Interleave
File size                                : 1.37 GiB
Duration                                 : 2h 35mn
Overall bit rate                         : 1 268 Kbps
Movie name                               : RARBG.COM - The.Physician.2013.BRRip.XviD.MP3-RARBG
Writing library                          : VirtualDub build 35491/release
Comment                                  : RARBG.COM - The.Physician.2013.BRRip.XviD.MP3-RARBG

Video
ID                                       : 0
Format                                   : MPEG-4 Visual
Format profile                           : Simple@L5
Format settings, BVOP                    : No
Format settings, QPel                    : No
Format settings, GMC                     : No warppoints
Format settings, Matrix                  : Default (H.263)
Codec ID                                 : XVID
Codec ID/Hint                            : XviD
Duration                                 : 2h 35mn
Bit rate                                 : 999 Kbps
Width                                    : 720 pixels
Height                                   : 300 pixels
Display aspect ratio                     : 2.35:1
Frame rate                               : 24.000 fps
Color space                              : YUV
Chroma subsampling                       : 4:2:0
Bit depth                                : 8 bits
Scan type                                : Progressive
Compression mode                         : Lossy
Bits/(Pixel*Frame)                       : 0.193
Stream size                              : 1.08 GiB (79%)
Writing library                          : Lavc55.55.104

Audio
ID                                       : 1
Format                                   : MPEG Audio
Format version                           : Version 1
Format profile                           : Layer 3
Mode                                     : Joint stereo
Codec ID                                 : 55
Codec ID/Hint                            : MP3
Duration                                 : 2h 35mn
Bit rate mode                            : Constant
Bit rate                                 : 256 Kbps
Channel(s)                               : 2 channels
Sampling rate                            : 48.0 KHz
Compression mode                         : Lossy
Stream size                              : 284 MiB (20%)
Alignment                                : Aligned on interleaves
Interleave, duration                     : 24 ms (0.58 video frame)
Interleave, preload duration             : 504 ms
Writing library                          : LAME3.99.5


Torrent downloaded from http://rarbg.com


Dostępne napisy
Brak napisów
Szczegóły torrenta
Tracker http://tracker.trackerfix.com:80/announce
Multitracker [ Pokaż ]
Kategoria: » » » [Zgłoś błąd]
Dodane 03-10-2017
Podziękowali:
0 użytkowników 
Podziękuj!
Pokaż / Ukryj pliki:
Nazwa pliku Rozmiar
The.Physician.2013.BRRip.XviD.MP3-RARBG.avi 1.37 GB
RARBG.avi 1.14 MB
The.Physician.2013.BRRip.XviD.MP3-RARBG.nfo 3.16 KB
The.Physician.2013.BRRip.XviD.MP3-RARBG.srt 0.49 KB
RARBG.com.txt 0.03 KB
5 plików
Brak komentarzy...