Enable / Włącz Javascript
 Widok 
 Kategorie 
 Nitro Torrent w sieci 
 Top 10 użytkowników 
 Terminator: Genisys 3D *2015* [PL.SUBBED.1080p.3D.Half.Over-Under.TrueHD 7.1.Atmos.AC3.BluRay.x264-SONDA] [ENG] [AT-TEAM]

Terminator: Genisys 3D *2015* [PL.SUBBED.1080p.3D.Half.Over-Under.TrueHD 7.1.Atmos.AC3.BluRay.x264-SONDA] [ENG] [AT-TEAM]
Kategoria: » » »
Dodane: 03/10/2017
Rozmiar: 17.59 GB
Uploader: wourua.live❱ Wędrowiec
seed(ów): 0
leecher(ów): 0
Pobrane: 11
Komentarzy: 0
Pobierz Torrent Pobierz Torrent
Pobierz [Magnet] Pobierz [Magnet]

Obserwuj
Raportuj
[Oryginalny obrazek]


Film w wersji 3D Over-Under.
Do odtworzenia filmu WYMAGANY odpowiedni sprzęt (TV 3D)
===========================================
UWAGA: Napisy na stałe wtopione w film. Zapraszam Wszystkich chętnych !!!!!!!
=====================================================

gatunek: Akcja,Sci-Fi
produkcja: USA
premiera: 1 lipca 2015 (Polska) 21 czerwca 2015 (świat)
reżyseria: Alan Taylor
scenariusz: Laeta Kalogridis,Patrick Lussier

http://www.imdb.com/title/tt1340138/
http://www.filmweb.pl/film?id=512784

Obsada:

Arnold Schwarzenegger ... Terminator
Jason Clarke ... John Connor
Emilia Clarke ... Sarah Connor
Jai Courtney ... Kyle Reese
J.K. Simmons ... O'Brien
Dayo Okeniyi ... Danny Dyson
Matt Smith ... Alex
Courtney B. Vance ... Miles Dyson

Opis:

Niedaleka przyszłość. W roku 2029 John Connor stoi na czele podziemia, walcząc z zagrażającymi ludzkości cyborgami. W tej nierównej walce musi zmierzyć się z siłami przeszłości i ? przyszłości. Aby zapewnić sobie życie, wysyła w przeszłość zaufanego porucznika Kyle'a Reese'a, który musi uratować matkę Connora przed śmiercią. Ale to, czego się dowiaduje, zmienia wszystko. Oprócz Ziemi A i Ziemi B istnieje jeszcze jedno uniwersum ? C, które ma stać się miejscem dla ludzkości. Tymczasem SkyNet szykuje się do najpotężniejszej wojny w dziejach. Wojny, której celem jest zgładzenie gatunku ludzkiego.

Storyline:

When John Connor (Jason Clarke), leader of the human resistance, sends Sgt. Kyle Reese (Jai Courtney) back to 1984 to protect Sarah Connor (Emilia Clarke) and safeguard the future, an unexpected turn of events creates a fractured timeline. Now, Sgt. Reese finds himself in a new and unfamiliar version of the past, where he is faced with unlikely allies, including the Guardian (Arnold Schwarzenegger), dangerous new enemies, and an unexpected new mission: To reset the future...

Screenshot:

[Oryginalny obrazek]

[Oryginalny obrazek]

[Oryginalny obrazek]

[Oryginalny obrazek]



General
ID                                       : 1 (0x1)
Format                                   : BDAV
Format/Info                              : Blu-ray Video
File size                                : 17.6 GiB
Duration                                 : 2h 5mn
Overall bit rate mode                    : Variable
Overall bit rate                         : 20.0 Mbps
Maximum Overall bit rate                 : 35.5 Mbps

Video
ID                                       : 4113 (0x1011)
Menu ID                                  : 1 (0x1)
Format                                   : AVC
Format/Info                              : Advanced Video Codec
Format profile                           : High@L4.1
Format settings, CABAC                   : Yes
Format settings, ReFrames                : 4 frames
Codec ID                                 : 27
Duration                                 : 2h 5mn
Bit rate mode                            : Variable
Bit rate                                 : 17.9 Mbps
Maximum bit rate                         : 40.0 Mbps
Width                                    : 1 920 pixels
Height                                   : 1 080 pixels
Display aspect ratio                     : 16:9 (2.39:1)
Frame rate                               : 23.976 fps
Color space                              : YUV
Chroma subsampling                       : 4:2:0
Bit depth                                : 8 bits
Scan type                                : Progressive
Bits/(Pixel*Frame)                       : 0.361
Stream size                              : 15.8 GiB (90%)

Audio #1
ID                                       : 4352 (0x1100)
Menu ID                                  : 1 (0x1)
Format                                   : AC-3
Format/Info                              : Audio Coding 3
Mode extension                           : CM (complete main)
Format settings, Endianness              : Big
Codec ID                                 : 129
Duration                                 : 2h 5mn
Bit rate mode                            : Constant
Bit rate                                 : 640 Kbps
Channel count                            : 6 channels
Channel positions                        : Front: L C R, Side: L R, LFE
Sampling rate                            : 48.0 KHz
Bit depth                                : 16 bits
Compression mode                         : Lossy
Stream size                              : 575 MiB (3%)
Language                                 : English

Audio #2
ID                                       : 4353 (0x1101)
Menu ID                                  : 1 (0x1)
Format                                   : TrueHD / AC-3
Mode extension                           : CM (complete main)
Format settings, Endianness              : Big
Muxing mode                              : Stream extension
Codec ID                                 : 131
Duration                                 : 2h 5mn
Bit rate mode                            : Variable / Constant
Bit rate                                 : 4443 Kbps / 640 Kbps
Maximum bit rate                         : 7 878 Kbps
Channel count                            : 8 channels / 6 channels
Channel positions                        : Front: L C R, Side: L R, Back: L R, LFE / Front: L C R, Side: L R, LFE
Sampling rate                            : 48.0 KHz
Bit depth                                : 16 bits
Stream size                              : 575 MiB (3%)
Language                                 : English

Source:
A/V-Terminator.Genisys.2015.1080p.3D.BluRay.AVC.TrueHD.7.1.Atmos-RARBG


.:: Sonda ::.


Dostępne napisy
Brak napisów
Szczegóły torrenta
Tracker http://tracker.torrenty.org:6969/announce
Multitracker [ Pokaż ]
Kategoria: » » » [Zgłoś błąd]
Dodane 03-10-2017
Podziękowali:
0 użytkowników 
Podziękuj!
Pokaż / Ukryj pliki:
Nazwa pliku Rozmiar
AT-TEAM/Upload by Sonda [AT-TEAM].jpg 45.62 KB
AT-TEAM/Read iNFO.txt 2.07 KB
AT-TEAM/Ale Torrenty Team enjoy !.url 0.11 KB
info/Torrent downloaded from sonda torrents at Free-Torrents.pl.txt 0.52 KB
info/Torrent downloaded from sonda torrents at aletorrenty.pl.txt 0.38 KB
info/Torrent downloaded from Sonda torrents at BTS.to.txt 0.11 KB
info/Torrent downloaded from Sonda torrents at AhaShare.com.txt 0.06 KB
info/Torrent downloaded from sonda000 torrents at demonoid.ph.txt 0.02 KB
Terminator.Genisys.3D.2015.H-OU.BDRip.1080p.subbedPL(Sonda).m2ts 17.59 GB
Terminator Genisys BD3D.jpg 264.76 KB
10 plików
Brak komentarzy...