Enable / Włącz Javascript
 Widok 
 Kategorie 
 Nitro Torrent w sieci 
 Top 10 użytkowników 
 Strażnicy Galaktyki 3D(OU) - Guardians of the Galaxy (IMAX Edition) *2014* [1080p.Half.Over-Under.DTS 5.1.AC3.BluRay.x264-SONDA] [Napisy PL]

Strażnicy Galaktyki 3D(OU) - Guardians of the Galaxy (IMAX Edition) *2014* [1080p.Half.Over-Under.DTS 5.1.AC3.BluRay.x264-SONDA] [Napisy PL]
Kategoria: » » »
Dodane: 03/10/2017
Rozmiar: 11.68 GB
Uploader: wourua.live❱ Wędrowiec
seed(ów): 0
leecher(ów): 0
Pobrane: 6
Komentarzy: 0
Pobierz Torrent Pobierz Torrent
Pobierz [Magnet] Pobierz [Magnet]

Obserwuj
Raportuj
Film w wersji 3D Over-Under
Do odtworzenia filmu WYMAGANY odpowiedni sprzęt (TV 3D).
==========================================

UWAGA: Napisy na stałe wtopione w film. Zapraszam Wszystkich chętnych !!!!!!
=====================================================





gatunek: Akcja, Sci-Fi
produkcja: USA
premiera: 1 sierpnia 2014  (Polska)  21 lipca 2014  (świat)
reżyseria: James Gunn
scenariusz: James Gunn, Nicole Perlman


http://www.imdb.com/title/tt2015381/
http://www.filmweb.pl/film?id=594357


Obsada:

Chris Pratt ... Peter Quill  
Zoe Saldana ... Gamora  
Dave Bautista ... Drax  
Vin Diesel ... Groot  
Bradley Cooper ... Rocket  
Lee Pace ... Ronan  
Michael Rooker ... Yondu Udonta
Karen Gillan ... Nebula

Opis:

Zuchwały awanturnik Peter Quill kradnie tajemniczy artefakt stanowiący obiekt pożądania złego i potężnego Ronana, którego ambicje zagrażają całemu wszechświatowi. Chcąc uniknąć gniewu Ronana, Quill zmuszony jest zawrzeć niewygodny sojusz z czterema niemającymi nic do stracenia outsiderami: Rocketem – uzbrojonym szopem, Grootem – drzewokształtnym humanoidem, śmiertelnie niebezpieczną i tajemniczą Gamorą i żądnym zemsty Draxem Niszczycielem. Kiedy główny bohater odkrywa prawdziwą moc artefaktu i zagrożenie, jakie stanowi on dla kosmosu, musi zmobilizować swoich niesubordynowanych towarzyszy do ostatniej bitwy, od której zależą losy galaktyki.

Screeny:

[Oryginalny obrazek]







General
Format                                   : Matroska
Format version                           : Version 2
File size                                : 11.7 GiB
Duration                                 : 2h 0mn
Overall bit rate mode                    : Variable
Overall bit rate                         : 13.8 Mbps
Movie name                               : Guardians.of.the.Galaxy.3D.1080p.subbedPL.Bluray3D [Rip by Sonda AT-Team]
Encoded date                             : UTC 2014-11-21 15:26:54
Writing application                      : mkvmerge v5.7.0 ('The Whirlwind') built on Jul  8 2012 20:08:51
Writing library                          : libebml v1.2.3 + libmatroska v1.3.0

Video
ID                                       : 1
Format                                   : AVC
Format/Info                              : Advanced Video Codec
Format profile                           : High@L4.1
Format settings, CABAC                   : Yes
Format settings, ReFrames                : 2 frames
Codec ID                                 : V_MPEG4/ISO/AVC
Duration                                 : 2h 0mn
Bit rate mode                            : Variable
Bit rate                                 : 11.4 Mbps
Maximum bit rate                         : 17.8 Mbps
Width                                    : 1 920 pixels
Height                                   : 1 080 pixels
Display aspect ratio                     : 2.40:1 - 1.78:1
Frame rate mode                          : Constant
Frame rate                               : 23.976 fps
Color space                              : YUV
Chroma subsampling                       : 4:2:0
Bit depth                                : 8 bits
Scan type                                : Progressive
Bits/(Pixel*Frame)                       : 0.229
Stream size                              : 9.63 GiB (82%)
Title                                    : Rip by Sonda subbedPL
Default                                  : Yes
Forced                                   : No

Audio #1
ID                                       : 2
Format                                   : AC-3
Format/Info                              : Audio Coding 3
Mode extension                           : CM (complete main)
Format settings, Endianness              : Big
Codec ID                                 : A_AC3
Duration                                 : 2h 0mn
Bit rate mode                            : Constant
Bit rate                                 : 640 Kbps
Channel(s)                               : 6 channels
Channel positions                        : Front: L C R, Side: L R, LFE
Sampling rate                            : 48.0 KHz
Bit depth                                : 16 bits
Compression mode                         : Lossy
Stream size                              : 553 MiB (5%)
Title                                    : AC3 5.1
Language                                 : English
Default                                  : Yes
Forced                                   : Yes

Audio #2
ID                                       : 3
Format                                   : DTS
Format/Info                              : Digital Theater Systems
Mode                                     : 16
Format settings, Endianness              : Big
Codec ID                                 : A_DTS
Duration                                 : 2h 0mn
Bit rate mode                            : Constant
Bit rate                                 : 1 509 Kbps
Channel(s)                               : 6 channels
Channel positions                        : Front: L C R, Side: L R, LFE
Sampling rate                            : 48.0 KHz
Bit depth                                : 24 bits
Compression mode                         : Lossy
Stream size                              : 1.27 GiB (11%)
Title                                    : DTS 5.1 Original
Language                                 : English
Default                                  : No
Forced                                   : No

Menu
00:00:00.000                             : en:(01)00:00:00:000
00:05:00.000                             : en:(02)00:05:00:000
00:10:00.000                             : en:(03)00:10:00:000
00:15:00.000                             : en:(04)00:15:00:000
00:20:00.000                             : en:(05)00:20:00:000
00:25:00.000                             : en:(06)00:25:00:000
00:30:00.000                             : en:(07)00:30:00:000
00:35:00.000                             : en:(08)00:35:00:000
00:40:00.000                             : en:(09)00:40:00:000
00:45:00.000                             : en:(10)00:45:00:000
00:50:00.000                             : en:(11)00:50:00:000
00:55:00.000                             : en:(12)00:55:00:000
01:00:00.000                             : en:(13)01:00:00:000
01:05:00.000                             : en:(14)01:05:00:000
01:10:00.000                             : en:(15)01:10:00:000
01:15:00.000                             : en:(16)01:15:00:000
01:20:00.000                             : en:(17)01:20:00:000
01:25:00.000                             : en:(18)01:25:00:000
01:30:00.000                             : en:(19)01:30:00:000
01:35:00.000                             : en:(20)01:35:00:000
01:40:00.000                             : en:(21)01:40:00:000
01:45:00.000                             : en:(22)01:45:00:000
01:50:00.000                             : en:(23)01:50:00:000
01:55:00.000                             : en:(24)01:55:00:000
02:00:00.000                             : en:(25)02:00:00:000


Source:
A/V-Guardians.of.the.Galaxy.2014.3D.1080p.BluRay.AVC.DTS-HD.MA.7.1-RARBG
PLSUBBED - SONDA







Dostępne napisy
Brak napisów
Szczegóły torrenta
Tracker http://tracker.aletorrenty.pl:2710/announce
Multitracker [ Pokaż ]
Kategoria: » » » [Zgłoś błąd]
Dodane 03-10-2017
Podziękowali:
0 użytkowników 
Podziękuj!
Pokaż / Ukryj pliki:
Nazwa pliku Rozmiar
Guardians.of.the.Galaxy.3D.1080p.subbedPL(Sonda).mkv 11.68 GB
852px-GuardiansOfTheGalaxy3DComboPack.jpg 162.75 KB
AT-TEAM old movie.jpg 140.78 KB
Upload by Sonda [AT-TEAM].jpg 36.66 KB
Read iNFO.txt 2.07 KB
Ale Torrenty Team enjoy !.url 0.11 KB
6 plików
Brak komentarzy...