Enable / Włącz Javascript
 Widok 
 Kategorie 
 Nitro Torrent w sieci 
 Top 10 użytkowników 
 Rechotek-Ribbit 3D (2014)[BRRip.1080p.60 FPS.x264-by alE13.AC3] [ENG]

Rechotek-Ribbit 3D (2014)[BRRip.1080p.60 FPS.x264-by alE13.AC3] [ENG]
Kategoria: » » »
Dodane: 03/10/2017
Rozmiar: 7.99 GB
Uploader: wourua.live❱ Wędrowiec
seed(ów): 0
leecher(ów): 0
Pobrane: 4
Komentarzy: 0
Pobierz Torrent Pobierz Torrent
Pobierz [Magnet] Pobierz [Magnet]

Obserwuj
Raportuj
F_INFO



http://www.imdb.com/title/tt2066048/
http://www.filmweb.pl/film/Rechotek-2014-642130

Film w wersji 3D - Over/Under
Napisy na stałe wpalone w film.


reżyseria: Chuck Powers
scenariusz: Amir Hafizi, Chuck Powers
gatunek: Animacja, Familijny, Komedia
produkcja: Malezja
premiera: 04-09-2014
muzyka:         Edry Abdul Halim
czas:           01:28:44

F_OPIS

The tale of a frog with an identity crisis.

Pełna niezwykłych przygód i znakomitego humoru animowana opowieść o najbardziej kumatej
żabce świata! Wielka podróż zaczyna się od żabiego skoku. Rechotek jest żabą, która
przeżywa kryzys tożsamości ? nie lubi skakać i nie znosi niczego, co wiąże się z wodą. Wraz
ze swoim najlepszym przyjacielem ? latającą wiewiórką ? wyrusza przez amazońską dżunglę
w poszukiwaniu swego miejsca w życiu. Na swej drodze spotkają całą plejadę najbardziej barwnych
zwierzątek, jakie można sobie wyobrazić. Kłopoty zaczną się, gdy Rechotek uwierzy, że jest
zaklętym w żabę ludzkim księciem i za wszelką cenę postanowi znaleźć księżniczkę, która o
dczaruje go pocałunkiem. Tylko jak tu w dżungli znaleźć księżniczkę?







F_OBSADA

Sean Astin, Tim Curry, Russell Peters (voice)

F_DANE

Ribbit 3D (2014)-alE13 .mkv
Format                      : Matroska
Format version              : Version 4 / Version 2
File size                   : 7.99 GiB
Duration                    : 1h 28mn
Overall bit rate mode       : Constant
Overall bit rate            : 12.9 Mbps
Movie name                  : Ribbit 3D (2014)-alE13
Encoded date                : UTC 2015-08-31 14:49:05
Writing application         : mkvmerge v8.3.0 ('Over the Horizon') 64bit
Writing library             : libebml v1.3.1 + libmatroska v1.4.2

Video
ID                          : 2
Format                      : AVC
Format/Info                 : Advanced Video Codec
Format profile              : Main@L4.2
Format settings, CABAC      : Yes
Format settings, ReFrames   : 2 frames
Format settings, GOP        : M=1, N=12
Codec ID                    : V_MPEG4/ISO/AVC
Duration                    : 1h 28mn
Bit rate mode               : Constant
Bit rate                    : 12.3 Mbps
Width                       : 1 920 pixels
Height                      : 1 080 pixels
Display aspect ratio        : 16:9
Frame rate mode             : Constant
Frame rate                  : 60.000 fps
Color space                 : YUV
Chroma subsampling          : 4:2:0
Bit depth                   : 8 bits
Scan type                   : Progressive
Bits/(Pixel*Frame)          : 0.098
Stream size                 : 7.43 GiB (93%)
Title                       : Ribbit 3D (2014)-alE13
Default                     : Yes
Forced                      : No
DURATION                    : 01:28:44.250000000
NUMBER_OF_FRAMES            : 319455
NUMBER_OF_BYTES             : 8146557667
_STATISTICS_WRITING_APP     : mkvmerge v8.3.0 ('Over the Horizon') 64bit
_STATISTICS_WRITING_DATE_UT : 2015-08-31 14:49:05
_STATISTICS_TAGS            : BPS DURATION NUMBER_OF_FRAMES NUMBER_OF_BYTES

Audio
ID                          : 1
Format                      : AC-3
Format/Info                 : Audio Coding 3
Mode extension              : CM (complete main)
Format settings, Endianness : Big
Codec ID                    : A_AC3
Duration                    : 1h 28mn
Bit rate mode               : Constant
Bit rate                    : 640 Kbps
Channel(s)                  : 6 channels
Channel positions           : Front: L C R, Side: L R, LFE
Sampling rate               : 48.0 KHz
Compression mode            : Lossy
Stream size                 : 406 MiB (5%)
Title                       : Ribbit 3D (2014)-alE13
Language                    : English
Default                     : Yes
Forced                      : No
DURATION                    : 01:28:41.088000000
NUMBER_OF_FRAMES            : 166284
NUMBER_OF_BYTES             : 425687040
_STATISTICS_WRITING_APP     : mkvmerge v8.3.0 ('Over the Horizon') 64bit
_STATISTICS_WRITING_DATE_UT : 2015-08-31 14:49:05
_STATISTICS_TAGS            : BPS DURATION NUMBER_OF_FRAMES NUMBER_OF_BYTES

== alE13 ==


Dostępne napisy
Brak napisów
Szczegóły torrenta
Tracker http://tracker.filetracker.pl:8089/announce
Multitracker [ Pokaż ]
Kategoria: » » » [Zgłoś błąd]
Dodane 03-10-2017
Podziękowali:
0 użytkowników 
Podziękuj!
Pokaż / Ukryj pliki:
Nazwa pliku Rozmiar
Ribbit 3D (2014)-alE13 .mkv 7.99 GB
info/Nostalgie.jpg 138.36 KB
poster.jpg 135.10 KB
Txt.jpg 121.74 KB
info/Torrent downloadet from alE13 at filetracker.pl 0.21 KB
info/Torrent downloaded from alE13 torrents at BTScene.org.txt 0.12 KB
info/Torrent downloaded from demonoid.pw.txt 0.04 KB
7 plików
Brak komentarzy...