Enable / Włącz Javascript
 Widok 
 Kategorie 
 Nitro Torrent w sieci 
 Top 10 użytkowników 
 Rampage. Dzika furia *2018* [1080p.WEB-DL.DD5.1.H264-FGT] [ENG]

Rampage. Dzika furia *2018* [1080p.WEB-DL.DD5.1.H264-FGT] [ENG]
Kategoria: » » »
Dodane: 19/06/2018
Rozmiar: 3.68 GB
Uploader: feldfebel1 (13)
seed(ów): 11165
leecher(ów): 5679
Pobrane: 267
Komentarzy: 0
Pobierz Torrent Pobierz Torrent
Pobierz [Magnet] Pobierz [Magnet]

Obserwuj
Raportuj
Info

Produkcja: USA
Gatunek: Akcja
Premiera: 11 maja 2018 (Polska), 11 kwietnia 2018 (świat)
Reżyseria: Brad Peyton
Scenariusz: Ryan Engle, Ryan Condal


Opis

Prymatolog Davis Okoye (Dwayne Johnson), który trzyma ludzi na dystans, nawiązał silną więź z George?em ? niezwykle inteligentnym gorylem srebrnogrzbietym, którym opiekuje się od czasu jego narodzin. Niestety wskutek nieudanego eksperymentu genetycznego ta łagodnie usposobiona małpa zmienia się w gigantyczną, rozwścieczoną bestię. Na domiar złego wkrótce okazuje się, że istnieją też inne zwierzęta, które uległy podobnej przemianie. Nowo stworzone drapieżniki alfa przedzierają się przez Amerykę Północną, niszcząc wszystko na swojej drodze. Okoye łączy siły z odrzuconym przez środowisko inżynierem genetycznym, aby znaleźć antidotum. Jednocześnie stara się przetrwać na nieustannie zmieniającym się polu walki i nie tylko zapobiec globalnej katastrofie, ale też uratować przerażającą istotę, która niegdyś była jego przyjacielem.


Obsada

? Dwayne Johnson .... Davis Okoye
? Naomie Harris .... Dr Kate Caldwell
? Malin ?kerman .... Claire Wyden
? Jeffrey Dean Morgan .... Harvey Russell
? Jake Lacy .... Brett Wyden
? Joe Manganiello .... Burke
? Marley Shelton .... Dr Kerry Atkins
? P.J. Byrne .... Nelson


Dane Techniczne

Video
ID : 1
Format : AVC
Format/Info : Advanced Video Codec
Format profile : High@L4
Format settings : CABAC / 5 Ref Frames
Format settings, CABAC : Yes
Format settings, ReFrames : 5 frames
Codec ID : V_MPEG4/ISO/AVC
Duration : 1 h 47 min
Bit rate : 4 525 kb/s
Width : 1 920 pixels
Height : 800 pixels
Display aspect ratio : 2.40:1
Frame rate mode : Constant
Frame rate : 23.976 (24000/1001) FPS
Color space : YUV
Chroma subsampling : 4:2:0
Bit depth : 8 bits
Scan type : Progressive
Bits/(Pixel*Frame) : 0.123
Stream size : 3.39 GiB (92%)
Title : Rampage.2018.1080p.WEB-DL.DD5.1.H264-FGT
Language : English
Default : Yes
Forced : No
Color range : Limited
Color primaries : BT.709
Transfer characteristics : BT.709
Matrix coefficients : BT.709

Audio
ID : 2
Format : AC-3
Format/Info : Audio Coding 3
Codec ID : A_AC3
Duration : 1 h 47 min
Bit rate mode : Constant
Bit rate : 384 kb/s
Channel(s) : 6 channels
Channel positions : Front: L C R, Side: L R, LFE
Sampling rate : 48.0 kHz
Frame rate : 31.250 FPS (1536 SPF)
Bit depth : 16 bits
Compression mode : Lossy
Stream size : 295 MiB (8%)
Title : Rampage.2018.1080p.WEB-DL.DD5.1.H264-FGT
Language : English
Service kind : Complete Main
Default : Yes
Forced : No

Text
ID : 3
Format : UTF-8
Codec ID : S_TEXT/UTF8
Codec ID/Info : UTF-8 Plain Text
Duration : 1 h 37 min
Bit rate : 55 b/s
Count of elements : 1257
Stream size : 39.8 KiB (0%)
Language : English
Default : Yes
Forced : No


Screenshot / Wideo

Dostępne napisy
Brak napisów
Szczegóły torrenta
Tracker http://tracker.trackerfix.com:80/announce
Multitracker [ Pokaż ]
Kategoria: » » » [Zgłoś błąd]
Dodane 19-06-2018
Podziękowali:
0 użytkowników 
Podziękuj!
Pokaż / Ukryj pliki:
Nazwa pliku Rozmiar
English.srt 89.05 KB
RARBG.txt 0.03 KB
Rampage.2018.1080p.WEB-DL.DD5.1.H264-FGT.mkv 3.68 GB
3 plików
Brak komentarzy...