Enable / Włącz Javascript
 Widok 
 Kategorie 
 Nitro Torrent w sieci 
 Top 10 użytkowników 
 Piksele 3D - Pixels *2015* [PLSUBBED.1080p.3D.Half.Over-Under.DTS 5.1.AC3.BluRay.x264-SONDA] [ENG] [AT-TEAM]

Piksele 3D - Pixels *2015* [PLSUBBED.1080p.3D.Half.Over-Under.DTS 5.1.AC3.BluRay.x264-SONDA] [ENG] [AT-TEAM]
Kategoria: » » »
Dodane: 03/10/2017
Rozmiar: 10.42 GB
Uploader: wourua.live❱ Wędrowiec
seed(ów): 0
leecher(ów): 0
Pobrane: 6
Komentarzy: 0
Pobierz Torrent Pobierz Torrent
Pobierz [Magnet] Pobierz [Magnet]

Obserwuj
Raportuj


Film w wersji 3D Over-Under.
Do odtworzenia filmu WYMAGANY odpowiedni sprzęt (TV 3D)
===========================================
UWAGA: Napisy na stałe wtopione w film. Zapraszam Wszystkich chętnych !!!!!!!
=====================================================


gatunek: Komedia,Sci-Fi
produkcja: USA
premiera: 24 lipca 2015 (Polska) 16 lipca 2015 (świat)
reżyseria: Chris Columbus
scenariusz: Timothy Dowling,Tim Herlihy,Adam Sandler

http://www.imdb.com/title/tt2120120/
http://www.filmweb.pl/film?id=599554

Obsada:

Adam Sandler ... Brenner
Kevin James ... Cooper
Michelle Monaghan ... Violet
Peter Dinklage ... Eddie
Josh Gad ... Ludlow
Matt Lintz ... Matty
Brian Cox ... Admirał Porter
Sean Bean ... Kapral Hill

Opis:

Kultowi bohaterowie gier lat osiemdziesiątych i dziewięćdziesiątych powracają. Pac-Man, wielki goryl Donkey Kong, kosmici ze "Space Invaders" najadą Ziemię z kosmosu cyberprzestrzeni. Pamiętacie jak chcieliście ich ustrzelić? Teraz wezmą odwet. Nawet pozytywni bohaterowie gier przejdą przemianę i staną się superzłoczyńcami, których jedynym celem jest zamienienie świata w piksele. Ludzkość znajdzie się w prawdziwym niebezpieczeństwie, znikną miasta, a na ulicach będzie grasował pożerający wszystko wielki Pac-Man. Jeśli myślicie, że macie siedem żyć? Na ratunek światu przyjdzie szkolny kolega prezydenta Stanów Zjednoczonych (Kevin James) - mistrz gier komputerowych sprzed lat, dziś instalator kablówki Sam Brenner (Adam Sandler).

Storyline:

Sam Brenner, Will Cooper, Ludlow Lamonsoff, and Eddie "The Fire Blaster" Plant all played classic arcade video games as teenagers. But now they have to use their skills to try to save the world from aliens. The aliens watched video feeds that they thought was a declaration of war. So they send down the classic arcade games to destroy earth. They also get help from a military specialist. They have three lives and if all three get used then earth will be destroyed, and every time they lose a live the aliens take someone's life. Who will win, us or the aliens? It's an all-out battle to save our planet and everyone on it.

Screenshot:







General
Format                                   : Matroska
Format version                           : Version 2
File size                                : 10.4 GiB
Duration                                 : 1h 45mn
Overall bit rate                         : 14.1 Mbps
Movie name                               : Pixels_3D.2015.H-OU.BDRip.1080p.PLSUBBED Rip by Sonda [AT-Team]
Encoded date                             : UTC 2015-10-12 13:05:58
Writing application                      : mkvmerge v5.7.0 ('The Whirlwind') built on Jul  8 2012 20:08:51
Writing library                          : libebml v1.2.3 + libmatroska v1.3.0

Video
ID                                       : 1
Format                                   : AVC
Format/Info                              : Advanced Video Codec
Format profile                           : High@L4.1
Format settings, CABAC                   : Yes
Format settings, ReFrames                : 4 frames
Codec ID                                 : V_MPEG4/ISO/AVC
Duration                                 : 1h 45mn
Bit rate                                 : 12.0 Mbps
Width                                    : 1 920 pixels
Height                                   : 1 080 pixels
Display aspect ratio                     : 16:9 (2.39:1)
Frame rate mode                          : Constant
Frame rate                               : 23.976 fps
Color space                              : YUV
Chroma subsampling                       : 4:2:0
Bit depth                                : 8 bits
Scan type                                : Progressive
Bits/(Pixel*Frame)                       : 0.241
Stream size                              : 8.63 GiB (83%)
Title                                    : PLSUBBED Rip by Sonda
Writing library                          : x264 core 148
Encoding settings                        : cabac=1 / ref=4 / deblock=1:-1:-1 / rc=abr
Default                                  : Yes
Forced                                   : No

Audio #1
ID                                       : 2
Format                                   : AC-3
Format/Info                              : Audio Coding 3
Mode extension                           : CM (complete main)
Format settings, Endianness              : Big
Codec ID                                 : A_AC3
Duration                                 : 1h 45mn
Bit rate mode                            : Constant
Bit rate                                 : 640 Kbps
Channel count                            : 6 channels
Channel positions                        : Front: L C R, Side: L R, LFE
Sampling rate                            : 48.0 KHz
Bit depth                                : 16 bits
Compression mode                         : Lossy
Stream size                              : 484 MiB (5%)
Title                                    : AC3 5.1 ENG
Language                                 : English
Default                                  : Yes
Forced                                   : Yes

Audio #2
ID                                       : 3
Format                                   : DTS
Format/Info                              : Digital Theater Systems
Mode                                     : 16
Format settings, Endianness              : Big
Codec ID                                 : A_DTS
Duration                                 : 1h 45mn
Bit rate mode                            : Constant
Bit rate                                 : 1 509 Kbps
Channel count                            : 6 channels
Channel positions                        : Front: L C R, Side: L R, LFE
Sampling rate                            : 48.0 KHz
Bit depth                                : 16 bits
Compression mode                         : Lossy
Stream size                              : 1.12 GiB (11%)
Title                                    : DTS 5.1 ENG
Language                                 : English
Default                                  : No
Forced                                   : No

Source:
A/V-Pixels (2015) 1080p [2D/3D] BD-Remux-HDCLUB

.:: Sonda ::.


Dostępne napisy
Brak napisów
Szczegóły torrenta
Tracker http://tracker.torrenty.org:6969/announce
Multitracker [ Pokaż ]
Kategoria: » » » [Zgłoś błąd]
Dodane 03-10-2017
Podziękowali:
0 użytkowników 
Podziękuj!
Pokaż / Ukryj pliki:
Nazwa pliku Rozmiar
AT-TEAM/Upload by Sonda [AT-TEAM].jpg 45.62 KB
AT-TEAM/Read iNFO.txt 2.07 KB
AT-TEAM/Ale Torrenty Team enjoy !.url 0.11 KB
info/Torrent downloaded from sonda torrents at Free-Torrents.pl.txt 0.52 KB
info/Torrent downloaded from sonda torrents at aletorrenty.pl.txt 0.38 KB
info/Torrent downloaded from Sonda torrents at BTS.to.txt 0.11 KB
info/Torrent downloaded from Sonda torrents at AhaShare.com.txt 0.06 KB
info/Torrent downloaded from sonda000 torrents at demonoid.ph.txt 0.02 KB
Pixels_3D.2015.PLSUBBED.H-OU.BDRip.1080p(Sonda).mkv 10.42 GB
Pixels BD3D.jpg 197.21 KB
10 plików
Brak komentarzy...