Enable / Włącz Javascript
 Widok 
 Kategorie 
 Nitro Torrent w sieci 
 Top 10 użytkowników 
 Książę Persji: Piaski Czasu Prince of Persia The Sands of Time (2010) [DVDRip XviD]

Książę Persji: Piaski Czasu Prince of Persia The Sands of Time (2010) [DVDRip XviD]
Kategoria: » » »
Dodane: 03/10/2017
Rozmiar: 1.37 GB
Uploader: wourua.live❱ Wędrowiec
seed(ów): 0
leecher(ów): 0
Pobrane: -
Komentarzy: 0
Pobierz Torrent Pobierz Torrent
Pobierz [Magnet] Pobierz [Magnet]

Obserwuj
Raportuj
reżyseria: Mike Newell
scenariusz: Boaz Yakin, Carlo Bernard (więcej...)
premiera: 21 maja 2010 (Polska) 9 maja 2010 (Świat)
produkcja: USA
gatunek: Fantasy, Przygodowy

Film na podstawie bestsellerowej gry z 2003 r. Dastan, najmłodszy syn króla Persji Sharamana, razem z trzema braćmi i wujem, przebywa na wyprawie wojennej. Udaje im się przechwycić karawanę przemytników, na podstawie której stwierdzają, że Święte Miasto Alamut jest sojusznikiem ich wrogów. Wbrew zakazowi króla wyruszają rozprawić się ze zdrajcami. W czasie zdobywania twierdzy, każdy z czterech braci szuka odpowiedniego trofeum dla ojca. Najstarszy z nich, Tus, radzi Dastanowi, by podarował mu wspaniałą szatę. Po powrocie do domu, kiedy tylko Sharaman nakłada ją na siebie, zostaje przez nią pochłonięty. Dastan, wraz z porwaną z Alamut księżniczką Taminą, uciekając przed złaknionym kary dla rzekomego mordercy króla kapitanem straży, odkrywają niezwykłe właściwości tajemniczego sztyletu znalezionego w Alamut. Dastan, wraz z towarzyszką, decyduje się powrócić do Świętego Miasta, by dowiedzieć się, czy, a jeśli tak to dlaczego, jego brat posłużył się nim do pozbycia się ojca.

Info:

Format                           : AVI
Format/Info                      : Audio Video Interleave
File size                        : 1.37 GiB
Duration                         : 1h 51mn
Overall bit rate                 : 1 761 Kbps
Writing application              : VirtualDubMod 1.5.10.2 (build 2542/release)
Writing library                  : VirtualDubMod build 2542/release
Original source form             : MAX TORRENTZ
Copyright                        : SIGISMUNT

Video
ID                               : 0
Format                           : MPEG-4 Visual
Format profile                   : AdvancedSimple@L5
Format settings, BVOP            : Yes
Format settings, QPel            : No
Format settings, GMC             : No warppoints
Format settings, Matrix          : Default (MPEG)
Codec ID                         : XVID
Codec ID/Hint                    : XviD
Duration                         : 1h 51mn
Bit rate                         : 1 303 Kbps
Width                            : 624 pixels
Height                           : 256 pixels
Display aspect ratio             : 2.40:1
Frame rate                       : 25.000 fps
Resolution                       : 24 bits
Colorimetry                      : 4:2:0
Scan type                        : Progressive
Bits/(Pixel*Frame)               : 0.326
Stream size                      : 1.01 GiB (74%)
Writing library                  : XviD 1.2.1 (UTC 2008-12-04)

Audio
ID                               : 1
Format                           : AC-3
Format/Info                      : Audio Coding 3
Codec ID                         : 2000
Duration                         : 1h 51mn
Bit rate mode                    : Constant
Bit rate                         : 448 Kbps
Channel(s)                       : 6 channels
Channel positions                : Front: L C R, Surround: L R, LFE
Sampling rate                    : 48.0 KHz
Stream size                      : 356 MiB (25%)
Alignment                        : Split accross interleaves
Interleave, duration             : 40 ms (1.00 video frame)
Interleave, preload duration     : 500 ms


Torrent downloaded from http://*censored*
Dostępne napisy
Brak napisów
Szczegóły torrenta
Tracker http://tracker.thepiratebay.org/announce
Multitracker [ Pokaż ]
Kategoria: » » » [Zgłoś błąd]
Dodane 03-10-2017
Podziękowali:
0 użytkowników 
Podziękuj!
Pokaż / Ukryj pliki:
Nazwa pliku Rozmiar
Prince of Persia The Sands of Time (2010) DVDRip XviD-MAXSPEED www.torentz.3xforum.ro.avi 1.37 GB
screencaps.jpg 234.66 KB
Prince of Persia The Sands of Time (2010) DVDRip XviD-MAXSPEED.nfo 2.50 KB
Torrent downloaded from Demonoid.com.txt 0.05 KB
Torrent downloaded from Kickasstorrents.com.txt 0.04 KB
Torrent downloaded from Rarbg.com.txt 0.03 KB
tracked_by_h33t_com.txt 0.02 KB
7 plików
Brak komentarzy...