Enable / Włącz Javascript
 Widok 
 Kategorie 
 Nitro Torrent w sieci 
 Top 10 użytkowników 
 Kot w Butach 3D (OU) - Puss in Boots (2011) [1080p BluRay Over-Under x264] [ENG]

Kot w Butach 3D (OU) - Puss in Boots (2011) [1080p BluRay Over-Under x264] [ENG]
Kategoria: » » »
Dodane: 03/10/2017
Rozmiar: 5.69 GB
Uploader: tomysparow559 (10)
seed(ów): 0
leecher(ów): 0
Pobrane: -
Komentarzy: 0
Pobierz Torrent Pobierz Torrent
Pobierz [Magnet] Pobierz [Magnet]

Obserwuj
Raportuj
Film w wersji 3D Over-Under.
Do odtworzenia filmu WYMAGANY odpowiedni sprzęt (TV 3D).

Tytuł: Puss in Boots
Polski Tytuł: Kot w butach
Produkcja: USA
Gatunek: Animacja, Komedia, Przygodowy
Reżyseria: Chris Miller
Scenariusz: David H. Steinberg, Tom Wheeler
Data Premiery: 5 stycznia 2012 (Polska) 27 października 2011 (Świat)
Ocena IMDB: 6.9/10 18,064 votes

OPIS:

Zanim Kot w butach (głos Antonio Banderas) poznał Shreka i wraz z nim uczestniczył w zwariowanych przygodach, wydarzyło się naprawdę wiele. Film przedstawia jak zdobył niesamowite umiejętności szermierskie, po raz pierwszy się zauroczył, a przede wszystkim jak rozpoczął mroczną karierę. Mistrz fechtunku udaje się w heroiczną podróż. Jednoczy siły z inteligentnym przyjacielem Humpty Dumptym (głos Zach Galifianakis) oraz z piękną uliczną kotką Kitty Softpaws (głos Salma Hayek), by ukraść słynną gęś znoszącą złote jaja. Ta przygoda warta jest dziewięciu żyć!

=============================================================
LINK DO NAPISÓW PL: http://download.hellshare.pl/kot-w-butach-napisy/5344178/
=============================================================
OBSADA:

Antonio Banderas - Kot w butach (głos)
Salma Hayek - Kitty Softpaws (głos)
Zach Galifianakis - Humpty Dumpty (głos)
Billy Bob Thornton - Jack (głos)
Amy Sedaris - Jill (głos)
Constance Marie - Imelda (głos)
Guillermo del Toro - Wąsaty gość / Comandate (głos)
Rich Dietl - Łowca nagród (głos)
Ryan Crego - Luis (głos)
Tom Wheeler -Barman / Właściciel hotelu / Wredny chłopiec / Woźnica / Rodrigo (głos)

General
Format : Matroska
File size : 5.69 GiB
Duration : 1h 30mn
Overall bit rate : 9 024 Kbps
Movie name : Puss in Boots (3D) 2011 (Ash61)
Encoded date : UTC 2012-02-14 11:24:54
Writing application : mkvmerge v3.4.0 ('Rapunzel') сборка от May 15 2010 09:38:20
Writing library : libebml v0.8.0 + libmatroska v0.9.0

Video
ID : 1
Format : AVC
Format/Info : Advanced Video Codec
Format profile : High@L4.1
Format settings, CABAC : Yes
Format settings, ReFrames : 4 frames
Codec ID : V_MPEG4/ISO/AVC
Duration : 1h 30mn
Bit rate : 7 149 Kbps
Width : 1 920 pixels
Height : 1 080 pixels
Display aspect ratio : 16:9
Frame rate : 23.976 fps
Color space : YUV
Chroma subsampling : 4:2:0
Bit depth : 8 bits
Scan type : Progressive
Bits/(Pixel*Frame) : 0.144
Stream size : 4.51 GiB (79%)
Title : BDrip by Ash61

Audio #1
ID : 2
Format : AC-3
Format/Info : Audio Coding 3
Mode extension : CM (complete main)
Codec ID : A_AC3
Duration : 1h 30mn
Bit rate mode : Constant
Bit rate : 448 Kbps
Channel(s) : 6 channels
Channel positions : Front: L C R, Side: L R, LFE
Sampling rate : 48.0 KHz
Bit depth : 16 bits
Compression mode : Lossy
Stream size : 289 MiB (5%)
Title : Дубляж (центральный канал с TS)
Language : Russian

Audio #2
ID : 3
Format : AC-3
Format/Info : Audio Coding 3
Mode extension : CM (complete main)
Codec ID : A_AC3
Duration : 1h 30mn
Bit rate mode : Constant
Bit rate : 384 Kbps
Channel(s) : 6 channels
Channel positions : Front: L C R, Side: L R, LFE
Sampling rate : 48.0 KHz
Bit depth : 16 bits
Compression mode : Lossy
Stream size : 248 MiB (4%)
Title : AVO - Хихикающий Доктор
Language : Russian

Audio #3
ID : 4
Format : AC-3
Format/Info : Audio Coding 3
Mode extension : CM (complete main)
Codec ID : A_AC3
Duration : 1h 30mn
Bit rate mode : Constant
Bit rate : 224 Kbps
Channel(s) : 2 channels
Channel positions : Front: L R
Sampling rate : 48.0 KHz
Bit depth : 16 bits
Compression mode : Lossy
Stream size : 145 MiB (2%)
Title : Дубляж (line)(39.2 сек начала - тишина)
Language : Ukrainian

Audio #4
ID : 5
Format : AC-3
Format/Info : Audio Coding 3
Mode extension : CM (complete main)
Codec ID : A_AC3
Duration : 1h 30mn
Bit rate mode : Constant
Bit rate : 640 Kbps
Channel(s) : 6 channels
Channel positions : Front: L C R, Side: L R, LFE
Sampling rate : 48.0 KHz
Bit depth : 16 bits
Compression mode : Lossy
Stream size : 413 MiB (7%)
Language : English

Text #1
ID : 6
Format : UTF-8
Codec ID : S_TEXT/UTF8
Codec ID/Info : UTF-8 Plain Text
Title : Voronine (полные)
Language : Russian

Text #2
ID : 7
Format : UTF-8
Codec ID : S_TEXT/UTF8
Codec ID/Info : UTF-8 Plain Text
Language : English

torrent pobrano z http://*censored*
Dostępne napisy
Brak napisów
Szczegóły torrenta
Tracker http://torrents3d.ru/bt/announce.php?uk=vkHAnMqg32&
Multitracker [ Pokaż ]
Kategoria: » » » [Zgłoś błąd]
Dodane 03-10-2017
Podziękowali:
0 użytkowników 
Podziękuj!
Pokaż / Ukryj pliki:
Nazwa pliku Rozmiar
PussInBoots(3D)2011.halfOU.TS+Xixidok+Ukr(line)(ash61).mkv 5.69 GB
1 plik
Brak komentarzy...