Enable / Włącz Javascript
 Widok 
 Kategorie 
 Nitro Torrent w sieci 
 Top 10 użytkowników 
 Hobbit: Bitwa Pięciu Armii 3D(OU) - The Hobbit: The Battle of the Five Armies *2014*[PL.SUBBED.mini-HD.1080p.3D.Half.Over-Under.AC3.BluRay.x264-LEON 345]

Hobbit: Bitwa Pięciu Armii 3D(OU) - The Hobbit: The Battle of the Five Armies *2014*[PL.SUBBED.mini-HD.1080p.3D.Half.Over-Under.AC3.BluRay.x264-LEON 345]
Kategoria: » » »
Dodane: 03/10/2017
Rozmiar: 7.80 GB
Uploader: wourua.live❱ Wędrowiec
seed(ów): 0
leecher(ów): 0
Pobrane: 13
Komentarzy: 0
Pobierz Torrent Pobierz Torrent
Pobierz [Magnet] Pobierz [Magnet]

Obserwuj
Raportuj
Hobbit: Bitwa Pięciu Armii 3D(OU) - The Hobbit: The Battle of the Five Armies *2014* PL SUBBED 1080p 3D Half-Over Under BDRip(Leon 345)
---------------------------------------------------------

Film w wersji 3D Over-Under.
Do odtworzenia filmu WYMAGANY odpowiedni sprzęt (TV 3D).

=========================================================
UWAGA!!! Napisy na stałe wrenderowane w film. Ci co mają jakiekolwiek
kłopoty z napisami w filmach 3D - Zapraszam !!!!!!!!
=========================================================

Produkcja: Nowa Zelandia, USA
Gatunek: Fantasy, Przygodowy
Czas trwania: 144 min.
Premiera: 25.12.2014 - Polska, 01.12.2014 - Świat
Reżyseria: Peter Jackson
Scenariusz: Fran Walsh, Philippa Boyens, Guillermo del Toro, Peter Jackson


http://filmweb.pl/film/Hobbit%3A+Bitwa+Pi%C4%99ciu+Armii-2014-662242
http://imdb.com/title/tt2310332


Filmowa adaptacja książki J.R.R. Tolkiena, będącej wstępem do słynnego "Władcy Pierścieni", to opowieść pełna niesamowitych wydarzeń i magicznych postaci. Przedstawia odwieczną walkę dobra ze złem. Po wielkim sukcesie pierwszych dwóch części trylogii ? "Hobbit: Niezwykła podróż" oraz "Hobbit: Pustkowie Smauga", nadszedł czas na film zamykający niezwykłe dzieło Petera Jacksona: "Hobbit: Bitwa Pięciu Armii".Drużyna dowodzona przez Thorina Dębową Tarczę dotarła do Samotnej Góry, której skarbu strzeże potężny Smaug. Czy Bilbo i jego towarzysze pokonają smoka i odzyskają legendarny Erebor?

OBSADA

Ian McKellen - Gandalf Szary
Martin Freeman - Bilbo Baggins
Richard Armitage - Thorin Dębowa Tarcza
Ken Stott - Balin
Graham McTavish - Dwalin
William Kircher - Bifur
James Nesbitt - Bofur
Stephen Hunter - Bombur


General: Hobbit_3D_Bitwa5Armi.miniHD.subbedPL(Leon 345)part1.mkv
========================================================

Format : Matroska
Format version : Version 4 / Version 2
File size : 3.95 GiB
Duration : 1h 12mn
Overall bit rate : 7 781 Kbps
Movie name : Hobbit_3D_Remux_Leon 345.Title0.Bluray3DRip
Encoded date : UTC 2015-03-13 10:38:32
Writing application : mkvmerge v7.6.0 ('Garden of Dreams') 64bit built on Feb 8 2015 13:04:34
Writing library : libebml v1.3.1 + libmatroska v1.4.2

Video
ID : 1
Format : AVC
Format/Info : Advanced Video Codec
Format profile : High@L4.1
Format settings, CABAC : Yes
Format settings, ReFrames : 2 frames
Codec ID : V_MPEG4/ISO/AVC
Duration : 1h 12mn
Bit rate : 7 178 Kbps
Width : 1 920 pixels
Height : 1 080 pixels
Display aspect ratio : 16:9 (OAR 2.39:1)
Frame rate mode : Constant
Frame rate : 23.976 fps
Color space : YUV
Chroma subsampling : 4:2:0
Bit depth : 8 bits
Scan type : Progressive
Bits/(Pixel*Frame) : 0.144
Stream size : 3.65 GiB (92%)
Title : Rip by Leon 345
Writing library : x264 core
Default : Yes
Forced : No
Color primaries : BT.709
Transfer characteristics : BT.709
Matrix coefficients : BT.709

Audio
ID : 2
Format : AC-3
Format/Info : Audio Coding 3
Mode extension : CM (complete main)
Format settings, Endianness : Big
Codec ID : A_AC3
Duration : 1h 12mn
Bit rate mode : Constant
Bit rate : 448 Kbps
Channel(s) : 6 channels
Channel positions : Front: L C R, Side: L R, LFE
Sampling rate : 48.0 KHz
Bit depth : 16 bits
Compression mode : Lossy
Stream size : 233 MiB (6%)
Title : AC3 5.1 ENG
Language : English
Default : Yes
Forced : No


General:Hobbit_3D_Bitwa5Armi.miniHD.subbedPL(Leon 345)part2.mkv
=========================================================

Format : Matroska
Format version : Version 4 / Version 2
File size : 3.84 GiB
Duration : 1h 11mn
Overall bit rate : 7 663 Kbps
Movie name : Hobbit_3D_Remux_Leon 345.Title0.Bluray3DRip
Encoded date : UTC 2015-03-13 10:38:32
Writing application : mkvmerge v7.6.0 ('Garden of Dreams') 64bit built on Feb 8 2015 13:04:34
Writing library : libebml v1.3.1 + libmatroska v1.4.2

Video
ID : 1
Format : AVC
Format/Info : Advanced Video Codec
Format profile : High@L4.1
Format settings, CABAC : Yes
Format settings, ReFrames : 2 frames
Codec ID : V_MPEG4/ISO/AVC
Duration : 1h 11mn
Bit rate : 7 062 Kbps
Width : 1 920 pixels
Height : 1 080 pixels
Display aspect ratio : 16:9 (OAR 2.39:1)
Frame rate mode : Constant
Frame rate : 23.976 fps
Color space : YUV
Chroma subsampling : 4:2:0
Bit depth : 8 bits
Scan type : Progressive
Bits/(Pixel*Frame) : 0.142
Stream size : 3.54 GiB (92%)
Title : Rip by Leon 345
Writing library : x264 core
Default : Yes
Forced : No
Color primaries : BT.709
Transfer characteristics : BT.709
Matrix coefficients : BT.709

Audio
ID : 2
Format : AC-3
Format/Info : Audio Coding 3
Mode extension : CM (complete main)
Format settings, Endianness : Big
Codec ID : A_AC3
Duration : 1h 11mn
Bit rate mode : Constant
Bit rate : 448 Kbps
Channel(s) : 6 channels
Channel positions : Front: L C R, Side: L R, LFE
Sampling rate : 48.0 KHz
Bit depth : 16 bits
Compression mode : Lossy
Delay relative to video : 3ms
Stream size : 230 MiB (6%)
Title : AC3 5.1 ENG
Language : English
Default : Yes
Forced : No

Source [thx]:
A/V - BD3D HDAccess

Leon 345
Dostępne napisy
Brak napisów
Szczegóły torrenta
Tracker http://tracker.torrenty.org:6969/announce
Multitracker [ Pokaż ]
Kategoria: » » » [Zgłoś błąd]
Dodane 03-10-2017
Podziękowali:
0 użytkowników 
Podziękuj!
Pokaż / Ukryj pliki:
Nazwa pliku Rozmiar
Hobbit_3D_Bitwa5Armi.miniHD.subbedPL(Leon 345)part1.mkv 3.95 GB
Hobbit_3D_Bitwa5Armi.miniHD.subbedPL(Leon 345)part2.mkv 3.84 GB
big_ga3920.jpg 131.00 KB
Downloaded from TnTTorrenT.info.txt 0.19 KB
4 plików
Brak komentarzy...