Enable / Włącz Javascript
 Widok 
 Kategorie 
 Nitro Torrent w sieci 
 Top 10 użytkowników 
 Godzilla 3D(OU) *2014* [1080p.Half.Over-Under.DTS 5.1.AC3.PLSUBBED.BluRay.x264-SONDA]

Godzilla 3D(OU) *2014* [1080p.Half.Over-Under.DTS 5.1.AC3.PLSUBBED.BluRay.x264-SONDA]
Kategoria: » » »
Dodane: 03/10/2017
Rozmiar: 11.78 GB
Uploader: wourua.live❱ Wędrowiec
seed(ów): 0
leecher(ów): 0
Pobrane: 3
Komentarzy: 0
Pobierz Torrent Pobierz Torrent
Pobierz [Magnet] Pobierz [Magnet]

Obserwuj
Raportuj
Film w wersji 3D Over-Under.
Do odtworzenia filmu WYMAGANY odpowiedni sprzęt (TV 3D).
============================================
UWAGA: Napisy na stałe wtopione w film. Zapraszam Wszystkich chętnych !!!!!!!
=====================================================


gatunek: Thriller,Akcja,Sci-Fi
produkcja: Japonia,USA
premiera: 16 maja 2014 (Polska) 8 maja 2014 (świat)
reżyseria: Gareth Edwards
scenariusz: Max Borenstein

http://www.filmweb.pl/film/Godzilla-2014-565162
http://www.imdb.com/title/tt0831387/

Opis:

Zapierająca dech w piersiach reaktywacja historii kultowej Godzilli — postaci zrodzonej w wytwórni Toho. Tworzony z rozmachem film przygodowy, który pokazuje walkę najsławniejszego na świecie potwora przeciwko złym stworzeniom, które czerpią siłę z arogancji ludzkości wobec nauki i zagrażają światu.

Obsada:

Aaron Taylor-Johnson ... Ford Brody
Ken Watanabe ... Dr Ichiro Serizawa
Bryan Cranston ... Joe Brody
Elizabeth Olsen ... Elle Brody
Juliette Binoche ... Sandra Brody
SSally Hawkins ... Vivienne Graham
David Strathairn ... Admirał William Stenz
Richard T. Jones ... Kapitan Russell Hampton


General
Format : Matroska
Format version : Version 2
File size : 11.8 GiB
Duration : 2h 3mn
Overall bit rate mode : Variable
Overall bit rate : 13.7 Mbps
Movie name : GODZILLA_3D.Bluray3D Rip by Sonda [AT-Team]
Encoded date : UTC 2014-08-26 09:18:19
Writing application : mkvmerge v5.7.0 ('The Whirlwind') built on Jul 8 2012 20:08:51
Writing library : libebml v1.2.3 + libmatroska v1.3.0

Video
ID : 1
Format : AVC
Format/Info : Advanced Video Codec
Format profile : High@L4.1
Format settings, CABAC : Yes
Format settings, ReFrames : 2 frames
Codec ID : V_MPEG4/ISO/AVC
Duration : 2h 3mn
Bit rate mode : Variable
Bit rate : 11.3 Mbps
Maximum bit rate : 40.0 Mbps
Width : 1 920 pixels
Height : 1 080 pixels
Display aspect ratio : 2.39:1
Frame rate mode : Constant
Frame rate : 23.976 fps
Color space : YUV
Chroma subsampling : 4:2:0
Bit depth : 8 bits
Scan type : Progressive
Bits/(Pixel*Frame) : 0.227
Stream size : 9.70 GiB (82%)
Title : Rip by Sonda
Default : Yes
Forced : No
Color primaries : BT.709
Transfer characteristics : BT.709
Matrix coefficients : BT.709

Audio #1
ID : 2
Format : AC-3
Format/Info : Audio Coding 3
Mode extension : CM (complete main)
Format settings, Endianness : Big
Codec ID : A_AC3
Duration : 2h 3mn
Bit rate mode : Constant
Bit rate : 640 Kbps
Channel(s) : 6 channels
Channel positions : Front: L C R, Side: L R, LFE
Sampling rate : 48.0 KHz
Bit depth : 16 bits
Compression mode : Lossy
Stream size : 564 MiB (5%)
Title : AC3 5.1
Language : English
Default : Yes
Forced : Yes

Audio #2
ID : 3
Format : DTS
Format/Info : Digital Theater Systems
Mode : 16
Format settings, Endianness : Big
Codec ID : A_DTS
Duration : 2h 3mn
Bit rate mode : Constant
Bit rate : 1 509 Kbps
Channel(s) : 6 channels
Channel positions : Front: L C R, Side: L R, LFE
Sampling rate : 48.0 KHz
Bit depth : 24 bits
Compression mode : Lossy
Stream size : 1.30 GiB (11%)
Title : DTS 5.1 Original
Language : English
Default : No
Forced : No

Menu
00:00:00.000 : en:(01)00:00:00:000
00:05:00.000 : en:(02)00:05:00:000
00:10:00.000 : en:(03)00:10:00:000
00:15:00.000 : en:(04)00:15:00:000
00:20:00.000 : en:(05)00:20:00:000
00:25:00.000 : en:(06)00:25:00:000
00:30:00.000 : en:(07)00:30:00:000
00:35:00.000 : en:(08)00:35:00:000
00:40:00.000 : en:(09)00:40:00:000
00:45:00.000 : en:(10)00:45:00:000
00:50:00.000 : en:(11)00:50:00:000
00:55:00.000 : en:(12)00:55:00:000
01:00:00.000 : en:(13)01:00:00:000
01:05:00.000 : en:(14)01:05:00:000
01:10:00.000 : en:(15)01:10:00:000
01:15:00.000 : en:(16)01:15:00:000
01:20:00.000 : en:(17)01:20:00:000
01:25:00.000 : en:(18)01:25:00:000
01:30:00.000 : en:(19)01:30:00:000
01:35:00.000 : en:(20)01:35:00:000
01:40:00.000 : en:(21)01:40:00:000
01:45:00.000 : en:(22)01:45:00:000
01:50:00.000 : en:(23)01:50:00:000
01:55:00.000 : en:(24)01:55:00:000
02:00:00.000 : en:(25)02:00:00:000


Dostępne napisy
Brak napisów
Szczegóły torrenta
Tracker http://tracker.aletorrenty.pl:2710/announce
Multitracker [ Pokaż ]
Kategoria: » » » [Zgłoś błąd]
Dodane 03-10-2017
Podziękowali:
0 użytkowników 
Podziękuj!
Pokaż / Ukryj pliki:
Nazwa pliku Rozmiar
GODZILLA_3D.1080p.PLSUBBED(Sonda).mkv 11.78 GB
AT-TEAM old movie.jpg 140.78 KB
godzilla-bluray.jpg 56.58 KB
AT-TEAM.jpg 36.66 KB
Read iNFO.txt 2.07 KB
Ale Torrenty Team enjoy !.url 0.11 KB
6 plików
Brak komentarzy...