Enable / Włącz Javascript
 Widok 
 Kategorie 
 Nitro Torrent w sieci 
 Top 10 użytkowników 
 Godzilla 3D (2014) [BRRip.x264.SBSDTS] [Napisy PL]

Godzilla 3D (2014) [BRRip.x264.SBSDTS] [Napisy PL]
Kategoria: » » »
Dodane: 03/10/2017
Rozmiar: 4.19 GB
Uploader: wourua.live❱ Wędrowiec
seed(ów): 0
leecher(ów): 0
Pobrane: 3
Komentarzy: 0
Pobierz Torrent Pobierz Torrent
Pobierz [Magnet] Pobierz [Magnet]

Obserwuj
Raportuj
[Oryginalny obrazek]
[Oryginalny obrazek]

http://www.imdb.com/title/tt0831387/
http://www.filmweb.pl/film/Godzilla-2014-565162

Film w wersji 3D SBS.

produkcja: Japonia, USA
gatunek: Thriller, Akcja, Sci-Fi
premiera: 08-05-2014 (świat)
reżyseria: Gareth Edwards
scenariusz: Max Borenstein
muzyka: Alexandre Desplat
zdjęcia: Seamus McGarvey
czas: 02:03:07

The world's most famous monster is pitted against malevolent creatures who,
bolstered by humanity's scientific arrogance, threaten our very existence.

Najsłynniejszy potwór w historii mierzy się z wrogimi stworami, które, wzmocnione przez arogancję i nieświadomość naukowców, zagrażają ludzkości.

[Oryginalny obrazek]

[Oryginalny obrazek]
[Oryginalny obrazek]
[Oryginalny obrazek]

[Oryginalny obrazek]


Obsada:

Aaron Taylor-Johnson, Ken Watanabe, Bryan Cranston, Elizabeth Olsen

Dane techniczne:

Format : Matroska
Format version : Version 4 / Version 2
File size : 4.19 GiB
Duration : 2h 3mn
Overall bit rate : 4 868 Kbps
Movie name : Godzilla 3D (2014)_Rip.-alE13
Encoded date : UTC 2014-08-26 04:28:07
Writing application : mkvmerge v7.1.0
Writing library : libebml v1.3.0 + libmatroska v1.4.1
Cover : Yes

Video
ID : 1
Format : AVC
Format/Info : Advanced Video Codec
Format profile : Main@L4.0
MultiView_Count : 2
MultiView_Layout : Side by Side (left eye first)
Format settings, CABAC : Yes
Format settings, ReFrames : 2 frames
Format settings, GOP : M=1, N=12
Codec ID : V_MPEG4/ISO/AVC
Duration : 2h 3mn
Bit rate mode : Constant
Bit rate : 3 360 Kbps
Width : 1 920 pixels
Height : 1 080 pixels
Display aspect ratio : 16:9
Frame rate mode : Constant
Frame rate : 23.976 fps
Color space : YUV
Chroma subsampling : 4:2:0
Bit depth : 8 bits
Scan type : Progressive
Bits/(Pixel*Frame) : 0.068
Stream size : 2.81 GiB (67%)
Title : Godzilla 3D (2014)_Rip.-alE13

Audio
ID : 2
Format : DTS
Format/Info : Digital Theater Systems
Mode : 16
Format settings, Endianness : Big
Codec ID : A_DTS
Duration : 2h 3mn
Bit rate mode : Constant
Bit rate : 1 509 Kbps
Channel(s) : 6 channels
Channel positions : Front: L C R, Side: L R, LFE
Sampling rate : 48.0 KHz
Bit depth : 24 bits
Compression mode : Lossy
Stream size : 1.30 GiB (31%)
Title : Godzilla 3D (2014)-alE13_DTS 5.1 / 1536 kbps / Original
Language : English

Text
ID : 3
Format : UTF-8
Codec ID : S_TEXT/UTF8
Codec ID/Info : UTF-8 Plain Text
Title : Godzilla 3D (2014)-alE13
Language : Polish

Menu
00:00:00.000 : en:00:00:00.000
00:09:22.562 : en:00:09:22.562
00:19:03.225 : en:00:19:03.225
00:30:25.532 : en:00:30:25.532
00:39:10.098 : en:00:39:10.098
00:49:43.439 : en:00:49:43.439
00:59:27.189 : en:00:59:27.189
01:09:50.186 : en:01:09:50.186
01:19:11.246 : en:01:19:11.246
01:29:57.267 : en:01:29:57.267
01:40:14.759 : en:01:40:14.759
01:52:14.728 : en:01:52:14.728
01:56:10.088 : en:01:56:10.088




Dostępne napisy
Brak napisów
Szczegóły torrenta
Tracker http://tracker.aletorrenty.pl:2710/announce
Multitracker [ Pokaż ]
Kategoria: » » » [Zgłoś błąd]
Dodane 03-10-2017
Podziękowali:
0 użytkowników 
Podziękuj!
Pokaż / Ukryj pliki:
Nazwa pliku Rozmiar
info/Nostalgie.jpg 138.36 KB
info/Torrent Downloaded from GloTorrents.com.txt 0.23 KB
info/Torrent downloaded from alE13 torrents at BTScene.org.txt 0.12 KB
info/Torrent downloaded from demonoid.ph.txt 0.04 KB
subtitles/Godzilla (2014)-alE13.srt 66.98 KB
subtitles/Godzilla (2014)-alE13.txt 43.57 KB
Godzilla 3D (2014)-alE13.mkv 4.19 GB
txt1.jpg 100.05 KB
poster.jpg 79.80 KB
9 plików
Brak komentarzy...