Enable / Włącz Javascript
 Widok 
 Kategorie 
 Nitro Torrent w sieci 
 Top 10 użytkowników 
 Final.Score 2018 [HDRip.X264.AC3] [EVO] [ENG] R@KU]

Final.Score 2018 [HDRip.X264.AC3] [EVO] [ENG] R@KU] Dla wourua.live
Kategoria: » » »
Dodane: 11/09/2018
Rozmiar: 892.66 MB
Uploader: R@KU (7)
seed(ów): 0
leecher(ów): 26
Pobrane: 149
Komentarzy: 4
Pobierz Torrent Pobierz Torrent
Pobierz [Magnet] Pobierz [Magnet]

Obserwuj
Raportuj
Info
reżyseria: Scott Mann
gatunek: Akcja
produkcja: Wielka Brytania
premiera: 7 września 2018 (świat)
Opis
po uprowadzeniu siostrzenicy na meczu piłki nożnej, były żołnierz ze śmiercionośnymi umiejętnościami do walki prowadzi jednoosobową wojnę, aby ją uratować i zapobiec masowej zagładzie.
Obsada
Dave Bautista
Pierce Brosnan
Ray Stevenson
Dane Techniczne
General
Complete name               : D:\\torenty\\soccer [R@KU]\\Final.Score.2018.720p.HDRip.X264.AC3-EVO.mkv.mp4
Format                      : MPEG-4
Format profile              : Base Media
Codec ID                    : isom (isom/iso2/avc1/mp41)
File size                   : 893 MiB
Duration                    : 1 h 38 min
Overall bit rate            : 1 263 kb/s
Movie name                  : EVO
Writing application         : Lavf57.83.100

Video
ID                          : 1
Format                      : AVC
Format/Info                 : Advanced Video Codec
Format profile              : High@L3.1
Format settings             : CABAC / 5 Ref Frames
Format settings, CABAC      : Yes
Format settings, ReFrames   : 5 frames
Codec ID                    : avc1
Codec ID/Info               : Advanced Video Coding
Duration                    : 1 h 38 min
Bit rate                    : 1 152 kb/s
Width                       : 1 280 pixels
Height                      : 536 pixels
Display aspect ratio        : 2.40:1
Frame rate mode             : Constant
Frame rate                  : 25.000 FPS
Color space                 : YUV
Chroma subsampling          : 4:2:0
Bit depth                   : 8 bits
Scan type                   : Progressive
Bits/(Pixel*Frame)          : 0.067
Stream size                 : 798 MiB (89%)
Writing library             : x264 core 148 r2795 aaa9aa8
Encoding settings           : cabac=1 / ref=5 / deblock=1:0:0 / analyse=0x3:0x113 / me=hex / subme=7 / psy=1 / psy_rd=1.00:0.00 / mixed_ref=1 / me_range=16 / chroma_me=1 / trellis=1 / 8x8dct=1 / cqm=0 / deadzone=21,11 / fast_pskip=1 / chroma_qp_offset=-2 / threads=8 / lookahead_threads=8 / sliced_threads=1 / slices=8 / nr=0 / decimate=1 / interlaced=0 / bluray_compat=0 / constrained_intra=0 / bframes=0 / weightp=2 / keyint=250 / keyint_min=25 / scenecut=40 / intra_refresh=0 / rc=abr / mbtree=0 / bitrate=1152 / ratetol=1.0 / qcomp=0.60 / qpmin=0 / qpmax=69 / qpstep=4 / ip_ratio=1.40 / aq=1:1.00
Codec configuration box     : avcC

Audio
ID                          : 2
Format                      : AAC LC
Format/Info                 : Advanced Audio Codec Low Complexity
Codec ID                    : mp4a-40-2
Duration                    : 1 h 38 min
Bit rate mode               : Constant
Bit rate                    : 129 kb/s
Channel(s)                  : 2 channels
Channel layout              : L R
Sampling rate               : 48.0 kHz
Frame rate                  : 46.875 FPS (1024 SPF)
Compression mode            : Lossy
Stream size                 : 91.3 MiB (10%)
Title                       : Surround
Language                    : English
Default                     : Yes
Alternate group             : 1


Dostępne napisy
Brak napisów
Szczegóły torrenta
Tracker http://tracker.vanitycore.co:6969/announce
Multitracker [ Pokaż ]
Kategoria: » » » [Zgłoś błąd]
Dodane 11-09-2018
Podziękowali:
0 użytkowników 
Podziękuj!
Pokaż / Ukryj pliki:
Nazwa pliku Rozmiar
Downloaded from wourua.live.txt 0.00 KB
Final.Score.2018.720p.HDRip.X264.AC3-EVO.mkv.mp4 892.66 MB
2 plików

<< Poprz.      Następna >>
1 - 4



Niqs (8)
mateuszinka2 napisał:
Proszę panie dać lektor nie znam na angielskim proszę ciebie

dwa wiaderka ściągnesz i zrozumiesz :p
14/09/2018 12:51:07 # 0 0


mateuszinka2 (1)
Proszę panie dać lektor nie znam na angielskim proszę ciebie
13/09/2018 16:06:17 # 0 0


R@KU (7)
@mateuszinka2: dziala pobieracie to sedujcie pijawy niech inni tez sciagna
12/09/2018 15:27:37 # 0 0


mateuszinka2 (1)
dzień dobry nie działa ten Torrent  proszę sprawdzisz
12/09/2018 11:36:58 # 0 0

1 - 4
<< Poprz.      Następna >>