Enable / Włącz Javascript
 Widok 
 Kategorie 
 Nitro Torrent w sieci 
 Top 10 użytkowników 
 Czterech: Ostateczna Walka - The Four Final Battle 3D (2014) [BRRip.x264.H-OU.AC3] [Napisy PLENG] [Chinese]

Czterech: Ostateczna Walka - The Four Final Battle 3D (2014) [BRRip.x264.H-OU.AC3] [Napisy PLENG] [Chinese]
Kategoria: » » »
Dodane: 03/10/2017
Rozmiar: 3.91 GB
Uploader: wourua.live❱ Wędrowiec
seed(ów): 0
leecher(ów): 0
Pobrane: -
Komentarzy: 0
Pobierz Torrent Pobierz Torrent
Pobierz [Magnet] Pobierz [Magnet]

Obserwuj
Raportuj
[Oryginalny obrazek]
[Oryginalny obrazek]

http://www.imdb.com/title/tt3919278/
http://www.filmweb.pl/film/Si+Da+Ming+Fu+III-2014-708010

Film w wersji 3D Half/SBS.

gatunek: Fantasy, Akcja
produkcja: Chiny, Hongkong
premiera: 21-08-2014
reżyseria: Gordon Chan
czas: 01:46:38

Emotionless has left Si Doors, as has Cold Blood, who has decided to investigate the death
of Lord Bu on his own. The departure of two of the four constables has effectively left
Six Doors defunct. At this time, trouble begins to brew in the Imperial Palace as Emperor
Huizong plans to travel incognito to the outside world. When he is almost assassinated and
subsequently disappears, Cold Blood, Emotionless, Iron Hands and Life Snatcher must band together
once again under Master Zhuge to save the empire from a massive conspiracy.

Stary chciwy mag postanawia przejąć władzę nad cesarstwem za pomocą magi, robi zamach na cesarza,
jednak na drodze staje mu czterech nieustraszonych ludzi, którzy muszą starego chciwca powsztrzymać.

[Oryginalny obrazek]

[Oryginalny obrazek]

[Oryginalny obrazek]

[Oryginalny obrazek]


Obsada:

Ronald Cheng, Collin Chou, Chao Deng

Dane techniczne:

Format : Matroska
Format version : Version 4 / Version 2
File size : 3.90 GiB
Duration : 1h 46mn
Overall bit rate : 5 239 Kbps
Movie name : The Four Final Battle 3D (2014)_Rip.-alE13
Encoded date : UTC 2014-12-02 16:14:25
Writing application : mkvmerge v6.7.0
Writing library : libebml v1.3.0 + libmatroska v1.4.1

Video
ID : 1
Format : AVC
Format/Info : Advanced Video Codec
Format profile : High@L4.1
Format settings, CABAC : Yes
Format settings, ReFrames : 2 frames
Format settings, GOP : M=3, N=24
Codec ID : V_MPEG4/ISO/AVC
Duration : 1h 46mn
Bit rate : 4 583 Kbps
Width : 1 920 pixels
Height : 816 pixels
Display aspect ratio : 2.35:1
Frame rate mode : Constant
Frame rate : 23.976 fps
Color space : YUV
Chroma subsampling : 4:2:0
Bit depth : 8 bits
Scan type : Progressive
Bits/(Pixel*Frame) : 0.122
Stream size : 3.35 GiB (86%)
Title : The Four Final Battle 3D (2014)_Rip.-alE13
Writing library : x264 core 142
Color primaries : BT.709
Transfer characteristics : BT.709
Matrix coefficients : BT.709
Color range : Limited

Audio
ID : 2
Format : AC-3
Format/Info : Audio Coding 3
Mode extension : CM (complete main)
Format settings, Endianness : Big
Codec ID : A_AC3
Duration : 1h 46mn
Bit rate mode : Constant
Bit rate : 640 Kbps
Channel(s) : 6 channels
Channel positions : Front: L C R, Side: L R, LFE
Sampling rate : 48.0 KHz
Bit depth : 16 bits
Compression mode : Lossy
Stream size : 488 MiB (12%)
Title : The Four Final Battle 3D (2014)-alE13_AC3 @ 640 Kbps
Language : Chinese

Text #1
ID : 3
Format : VobSub
Muxing mode : zlib
Codec ID : S_VOBSUB
Codec ID/Info : The same subtitle format used on DVDs
Title : The Four Final Battle 3D (2014)-alE13
Language : Polish
Default : Yes


Text #2
ID : 4
Format : VobSub
Muxing mode : zlib
Codec ID : S_VOBSUB
Codec ID/Info : The same subtitle format used on DVDs
Title : The Four Final Battle 3D (2014)_Rip.-alE13
Language : English




Dostępne napisy
Brak napisów
Szczegóły torrenta
Tracker http://94.228.192.98/announce
Multitracker [ Pokaż ]
Kategoria: » » » [Zgłoś błąd]
Dodane 03-10-2017
Podziękowali:
0 użytkowników 
Podziękuj!
Pokaż / Ukryj pliki:
Nazwa pliku Rozmiar
The Four Final Battle 3D (2014)-alE13.mkv 3.90 GB
subtitles/subtitles.rar 7.86 MB
poster.png 313.78 KB
info/Nostalgie.jpg 138.36 KB
poster.jpg 107.39 KB
txt.jpg 98.93 KB
info/Torrent downloaded from alE13 torrents at torrentgarden.com.txt 0.36 KB
info/Torrent Downloaded from GloTorrents.com.txt 0.23 KB
info/Torrent downloaded from alE13 torrents at BTScene.org.txt 0.12 KB
info/Torrent Downloaded from demonoid.ph.txt 0.02 KB
10 plików
Brak komentarzy...