Enable / Włącz Javascript
 Widok 
 Kategorie 
 Nitro Torrent w sieci 
 Top 10 użytkowników 
 Człowiek z Lodu - The Iceman 3D (2014) [BDRip.x264.HOU Audio AC3] [Napisy PLENG] [Chinese]

Człowiek z Lodu - The Iceman 3D (2014) [BDRip.x264.HOU Audio AC3] [Napisy PLENG] [Chinese]
Kategoria: » » »
Dodane: 03/10/2017
Rozmiar: 3.97 GB
Uploader: wourua.live❱ Wędrowiec
seed(ów): 0
leecher(ów): 0
Pobrane: 15
Komentarzy: 0
Pobierz Torrent Pobierz Torrent
Pobierz [Magnet] Pobierz [Magnet]

Obserwuj
Raportuj
[Oryginalny obrazek]
[Oryginalny obrazek]

http://www.filmweb.pl/film/Iceman-2014-682404#
http://www.imdb.com/title/tt2557256/combined

Film w wersji 3D Half Over-Under.

produkcja: Chiny 3D Group
data:25-04-2014
reżyseria: Law Wing-cheung
scenariusz: Stephen Shiu
gatunek: Fantazy Akcja
czas: 01:44:13

opis:

During the Ming Dynasty four orphans; Ying, Sao, Yuanlong and Niehu are raised
in Taoyuan Village and become close to being brothers. Their exceptional martial arts skills allows them to reach the highest rank within the imperial guards. After a successful attempt to kill a Japanese troop leader, the Emperor orders Ying to escort the Golden Wheel of Time from Sindu back to the capital, which is said to have the power of time travel and foresee into the future.

Trzej przypadkowi wojownicy z dynastji Ming, przypadkowo przenoszą się we współczesne czasy, gdzie dwóch z nich , chce się zemścić na trzecim. Akcja rozgrywa sie w dwóch wymiarach czasowych.

[Oryginalny obrazek]
[Oryginalny obrazek]
[Oryginalny obrazek]
[Oryginalny obrazek]
[Oryginalny obrazek]
[Oryginalny obrazek]
[Oryginalny obrazek]
[Oryginalny obrazek]
[Oryginalny obrazek]
[Oryginalny obrazek]

more:

http://www.imdb.com/title/tt2557256/plotsummary

obsada:

Donnie Yen, Baoqiang Wang, Shengyi Huang

dane techniczne:

The Iceman 3D (2014)-alE13.mkv
Format : Matroska
Format version : Version 4 / Version 2
File size : 3.96 GiB
Duration : 1h 44mn
Overall bit rate : 5 436 Kbps
Movie name : The Iceman 3D (2014)_Rip.-alE13
Encoded date : UTC 2014-07-06 08:12:04
Writing application : mkvmerge v6.9.1
Writing library : libebml v1.3.0 + libmatroska v1.4.1

Video
ID : 1
Format : AVC
Format/Info : Advanced Video Codec
Format profile : High@L4.0
Format settings, CABAC : Yes
Format settings, ReFrames : 2 frames
Format settings, GOP : M=1, N=12
Codec ID : V_MPEG4/ISO/AVC
Duration : 1h 44mn
Bit rate mode : Constant
Bit rate : 4 780 Kbps
Width : 1 920 pixels
Height : 1 080 pixels
Display aspect ratio : 16:9
Frame rate mode : Constant
Frame rate : 23.976 fps
Color space : YUV
Chroma subsampling : 4:2:0
Bit depth : 8 bits
Scan type : Progressive
Bits/(Pixel*Frame) : 0.096
Stream size : 3.41 GiB (86%)
Title : The Iceman 3D (2014)_Rip.-alE13

Audio
ID : 2
Format : AC-3
Format/Info : Audio Coding 3
Mode extension : CM (complete main)
Format settings, Endianness : Big
Codec ID : A_AC3
Duration : 1h 44mn
Bit rate mode : Constant
Bit rate : 640 Kbps
Channel(s) : 6 channels
Channel positions : Front: L C R, Side: L R, LFE
Sampling rate : 48.0 KHz
Bit depth : 16 bits
Compression mode : Lossy
Stream size : 477 MiB (12%)
Title : The Iceman 3D (2014)-alE13
Language : Chinese

Text #1
ID : 3
Format : VobSub
Muxing mode : zlib
Codec ID : S_VOBSUB
Codec ID/Info : The same subtitle format used on DVDs
Title : The Iceman 3D (2014)-alE13
Language : Polish

Text #2
ID : 4
Format : VobSub
Muxing mode : zlib
Codec ID : S_VOBSUB
Codec ID/Info : The same subtitle format used on DVDs
Title : The Iceman 3D (2014)-alE13
Language : English

Text #3
ID : 5
Format : UTF-8
Codec ID : S_TEXT/UTF8
Codec ID/Info : UTF-8 Plain Text
Title : The Iceman 3D (2014)-alE13
Language : Polish

Text #4
ID : 6
Format : UTF-8
Codec ID : S_TEXT/UTF8
Codec ID/Info : UTF-8 Plain Text
Title : The Iceman 3D (2014)-alE13
Language : English

Menu
00:00:00.000 : en:(01)00:00:00:000
00:04:42.448 : en:(02)00:04:42:448
00:09:50.381 : en:(03)00:09:50:381
00:14:33.539 : en:(04)00:14:33:539
00:20:27.100 : en:(05)00:20:27:100
00:24:54.743 : en:(06)00:24:54:743
00:29:04.534 : en:(07)00:29:04:534
00:33:48.860 : en:(08)00:33:48:860
00:39:08.763 : en:(09)00:39:08:763
00:43:02.788 : en:(10)00:43:02:788
00:48:32.659 : en:(11)00:48:32:659
00:53:54.189 : en:(12)00:53:54:189
00:57:25.692 : en:(13)00:57:25:692
01:01:27.100 : en:(14)01:01:27:100
01:07:28.836 : en:(15)01:07:28:836
01:10:39.443 : en:(16)01:10:39:443
01:17:05.787 : en:(17)01:17:05:787
01:20:45.048 : en:(18)01:20:45:048
01:25:17.112 : en:(19)01:25:17:112
01:36:18.397 : en:(20)01:36:18:397
01:44:12.287 : en:(21)01:44:12:287



Dostępne napisy
Brak napisów
Szczegóły torrenta
Tracker http://tracker.aletorrenty.pl:2710/announce
Multitracker [ Pokaż ]
Kategoria: » » » [Zgłoś błąd]
Dodane 03-10-2017
Podziękowali:
0 użytkowników 
Podziękuj!
Pokaż / Ukryj pliki:
Nazwa pliku Rozmiar
info/1.jpg 619.49 KB
info/Nostalgie 01.jpg 184.25 KB
info/Torrent downloaded from alE13 torrents at BTScene.org.txt 0.12 KB
info/Torrent downloaded from demonoid.ph.txt 0.04 KB
subtitles/subtitles.rar 9.73 MB
The Iceman 3D (2014)-alE13.mkv 3.96 GB
txt.jpg 149.01 KB
poster.jpg 108.06 KB
8 plików
Brak komentarzy...