Enable / Włącz Javascript
 Widok 
 Kategorie 
 Nitro Torrent w sieci 
 Top 10 użytkowników 
 Czarownica - Maleficent 3D (2014) [1080p.3D.Half-OU.AC3.BDRip.x264-gixerk9] [Napisy PL]

Czarownica - Maleficent 3D (2014) [1080p.3D.Half-OU.AC3.BDRip.x264-gixerk9] [Napisy PL]
Kategoria: » » »
Dodane: 03/10/2017
Rozmiar: 1.80 GB
Uploader: wourua.live❱ Wędrowiec
seed(ów): 0
leecher(ów): 0
Pobrane: 6
Komentarzy: 0
Pobierz Torrent Pobierz Torrent
Pobierz [Magnet] Pobierz [Magnet]

Obserwuj
Raportuj
Czarownica - Maleficent (2014)

gatunek: Familijny, Fantasy
produkcja: USA
premiera: 30 maja 2014 (Polska) 28 maja 2014 (świat)
reżyseria: Robert Stromberg
scenariusz: Linda Woolverton

Obsada:

Angelina Jolie - Maleficent
Elle Fanning - Aurora
Sharlto Copley - Stefan
Lesley Manville - Flittle
Imelda Staunton - Knotgrass
Juno Temple - Thistletwit
Sam Riley - Diaval
Brenton Thwaites - Książę Phillip

Opis:

Zrealizowany z wielkim rozmachem film "Czarownica", z udziałem Angeliny Jolie w roli tytułowej, został zainspirowany postacią znaną z disneyowskiej "Śpiącej królewny" – Diaboliną. Tytułowa Czarownica była niegdyś piękną i dobrą dziewczyną. Jej radosną młodość przerwała wojna, podczas której bohaterka z oddaniem broniła swojej ojczyzny. Jednak zdrada, której doświadczyła, zmieniła jej czyste serce w kamień... Żądna zemsty rzuca klątwę na Aurorę – nowonarodzoną córkę następcy tronu wrogiego królestwa.

Screeny:

[Oryginalny obrazek]

[Oryginalny obrazek]

[Oryginalny obrazek]

[Oryginalny obrazek]

[Oryginalny obrazek]


Dane Techniczne:

Format : Matroska
Format version : Version 2
File size : 1.80 GiB
Duration : 1h 37mn
Overall bit rate : 2 648 Kbps
Movie name : Maleficent 3D (2014) (gixerk9)
Encoded date : UTC 2014-09-13 11:57:32
Writing application : mkvmerge v5.7.0 ('The Whirlwind') built on Jul 8 2012 20:08:51
Writing library : libebml v1.2.3 + libmatroska v1.3.0

Video
ID : 1
Format : AVC
Format/Info : Advanced Video Codec
Format profile : High@L4.1
Format settings, CABAC : Yes
Format settings, ReFrames : 2 frames
Codec ID : V_MPEG4/ISO/AVC
Duration : 1h 37mn
Bit rate : 2 147 Kbps
Width : 1 920 pixels
Height : 1 080 pixels
Display aspect ratio : 16:9
Frame rate mode : Constant
Frame rate : 23.976 fps
Color space : YUV
Chroma subsampling : 4:2:0
Bit depth : 8 bits
Scan type : Progressive
Bits/(Pixel*Frame) : 0.043
Stream size : 1.46 GiB (81%)
Writing library : x264 core
Default : Yes
Forced : No
Color primaries : BT.709
Transfer characteristics : BT.709
Matrix coefficients : BT.709

Audio
ID : 2
Format : AC-3
Format/Info : Audio Coding 3
Mode extension : CM (complete main)
Format settings, Endianness : Big
Codec ID : A_AC3
Duration : 1h 37mn
Bit rate mode : Constant
Bit rate : 448 Kbps
Channel(s) : 6 channels
Channel positions : Front: L C R, Side: L R, LFE
Sampling rate : 48.0 KHz
Bit depth : 16 bits
Compression mode : Lossy
Stream size : 312 MiB (17%)
Title : English AC3 5.1
Language : English
Default : Yes
Forced : No

Text #1
ID : 3
Format : PGS
Muxing mode : zlib
Codec ID : S_HDMV/PGS
Codec ID/Info : The same subtitle format used on BDs/HD-DVDs
Title : Napisy PL 3D
Language : Polish
Default : No
Forced : No

Text #2
ID : 4
Format : UTF-8
Codec ID : S_TEXT/UTF8
Codec ID/Info : UTF-8 Plain Text
Title : Napisy PL
Language : Polish
Default : No
Forced : No

Source:

A/V: Maleficent (2014) Blu-ray 3D EUR - NiP


torrent pobrano z http://*censored*


Dostępne napisy
Brak napisów
Szczegóły torrenta
Tracker http://94.228.192.98/announce
Multitracker [ Pokaż ]
Kategoria: » » » [Zgłoś błąd]
Dodane 03-10-2017
Podziękowali:
0 użytkowników 
Podziękuj!
Pokaż / Ukryj pliki:
Nazwa pliku Rozmiar
Maleficent 3D (2014) (gixerk9).mkv 1.80 GB
Maleficent 3D (2014) (gixerk9).srt 39.07 KB
Maleficent 3D (2014) (gixerk9).nfo 9.01 KB
3 plików
Brak komentarzy...